<?xml version="1.0" standalone="no"?>
<!DOCTYPE svg PUBLIC "-//W3C//DTD SVG 1.1//EN" "http://www.w3.org/Graphics/SVG/1.1/DTD/svg11.dtd" >
<svg xmlns="http://www.w3.org/2000/svg" xmlns:xlink="http://www.w3.org/1999/xlink" version="1.1">
<metadata>
Created by FontForge 20170731 at Fri Jul 11 19:31:57 2014
 By Aleksey,,,
Copyright 2014 Indian Type Foundry. All rights reserved.
</metadata>
<defs>
<font id="Teko-Bold" horiz-adv-x="250" >
  <font-face 
    font-family="Teko"
    font-weight="700"
    font-stretch="normal"
    units-per-em="1000"
    panose-1="2 0 0 0 0 0 0 0 0 0"
    ascent="800"
    descent="-200"
    x-height="499"
    cap-height="642"
    bbox="-548 -475 2240 958"
    underline-thickness="50"
    underline-position="-150"
    unicode-range="U+000D-FB02"
  />
<missing-glyph horiz-adv-x="510" 
d="M251 302h-4l-100 -209h-60l134 260l-134 255h60l105 -206h4l100 206h60l-135 -261l135 -254h-60zM51 652v-603h400v603h-400zM0 0v701h502v-701h-502z" />
    <glyph glyph-name=".notdef" horiz-adv-x="510" 
d="M251 302h-4l-100 -209h-60l134 260l-134 255h60l105 -206h4l100 206h60l-135 -261l135 -254h-60zM51 652v-603h400v603h-400zM0 0v701h502v-701h-502z" />
    <glyph glyph-name=".null" horiz-adv-x="0" 
 />
    <glyph glyph-name="nonmarkingreturn" horiz-adv-x="333" 
 />
    <glyph glyph-name="NULL" horiz-adv-x="0" 
 />
    <glyph glyph-name="NULL" horiz-adv-x="0" 
 />
    <glyph glyph-name="CR" unicode="&#xd;" horiz-adv-x="0" 
 />
    <glyph glyph-name="space" unicode=" " horiz-adv-x="200" 
 />
    <glyph glyph-name="exclam" unicode="!" horiz-adv-x="297" 
d="M62 0v164h172v-164h-172zM50 642h197l-30 -409h-137z" />
    <glyph glyph-name="quotedbl" unicode="&#x22;" horiz-adv-x="434" 
d="M241 642h153v-266h-153v266zM40 642h153v-266h-153v266z" />
    <glyph glyph-name="numbersign" unicode="#" horiz-adv-x="678" 
d="M648 389h-98l-31 -137h82v-110h-107l-32 -142h-145l32 142h-100l-32 -142h-146l32 142h-73v110h98l31 137h-82v110h107l32 142h145l-32 -142h100l32 142h146l-32 -142h73v-110zM374 252l30 137h-100l-30 -137h100z" />
    <glyph glyph-name="dollar" unicode="$" horiz-adv-x="491" 
d="M230 378h94q74 0 105.5 -31t31.5 -91v-132q0 -119 -133 -124v-84h-166v84q-130 7 -130 124v77h175v-54q0 -22 25 -22h29q25 0 25 22v91q0 22 -25 22h-96q-74 0 -104.5 32.5t-30.5 93.5v132q0 118 132 124v85h166v-85q131 -7 131 -124v-77h-175v54q0 22 -25 22h-29
q-25 0 -25 -22v-95q0 -22 25 -22z" />
    <glyph glyph-name="percent" unicode="%" horiz-adv-x="898" 
d="M568 642h127l-363 -642h-125zM732 120v143q0 18 -20 18h-16q-20 0 -20 -18v-143q0 -17 20 -17h16q20 0 20 17zM222 379v143q0 18 -20 18h-16q-20 0 -20 -18v-143q0 -17 20 -17h16q20 0 20 17zM873 283v-183q0 -100 -118 -100h-102q-118 0 -118 100v183q0 100 118 100h102
q118 0 118 -100zM363 542v-183q0 -100 -118 -100h-102q-118 0 -118 100v183q0 100 118 100h102q118 0 118 -100z" />
    <glyph glyph-name="ampersand" unicode="&#x26;" horiz-adv-x="625" 
d="M453 0h-276q-147 0 -147 124v58q0 50 19.5 77t74.5 57l16 9l-4 5q-40 42 -55 66.5t-15 53.5v68q0 124 147 124h117q144 0 144 -124v-68q0 -55 -24 -84q-27 -32 -97 -72l106 -113v70h138v-127q0 -42 -19 -70l84 -90h-174zM236 508v-65q0 -26 23 -50q29 16 39.5 26t10.5 28
v61q0 22 -25 22h-23q-25 0 -25 -22zM220 115h123l-108 112l-17 -10q-23 -14 -23 -38v-42q0 -22 25 -22z" />
    <glyph glyph-name="quotesingle" unicode="'" horiz-adv-x="243" 
d="M40 642h163v-266h-163v266z" />
    <glyph glyph-name="parenleft" unicode="(" horiz-adv-x="337" 
d="M40 497q0 149 72.5 228t205.5 79h9v-145h-9q-103 0 -103 -159v-362q0 -159 103 -159h9v-145h-9q-133 0 -205.5 79t-72.5 228v356z" />
    <glyph glyph-name="parenright" unicode=")" horiz-adv-x="337" 
d="M297 141q0 -149 -72.5 -228t-205.5 -79h-9v145h9q103 0 103 159v362q0 159 -103 159h-9v145h9q133 0 205.5 -79t72.5 -228v-356z" />
    <glyph glyph-name="asterisk" unicode="*" horiz-adv-x="390" 
d="M133 626v16h125v-17q0 -44 -11 -77q34 22 88 39l38 -118q-48 -18 -93 -20q30 -23 55 -58l10 -13l-101 -73q-32 40 -48 84q-12 -38 -48 -85l-101 73q35 48 65 71q-40 2 -94 20l39 118q52 -16 87 -39q-11 39 -11 79z" />
    <glyph glyph-name="plus" unicode="+" horiz-adv-x="513" 
d="M498 382v-125h-160v-155h-163v155h-160v125h160v155h163v-155h160z" />
    <glyph glyph-name="comma" unicode="," horiz-adv-x="252" 
d="M40 164h172v-90l-120 -223h-52v313z" />
    <glyph glyph-name="hyphen" unicode="-" horiz-adv-x="343" 
d="M20 245v115h303v-115h-303z" />
    <glyph glyph-name="period" unicode="." horiz-adv-x="252" 
d="M40 0v164h172v-164h-172z" />
    <glyph glyph-name="slash" unicode="/" horiz-adv-x="411" 
d="M287 702h144l-307 -762h-144z" />
    <glyph glyph-name="zero" unicode="0" horiz-adv-x="501" 
d="M289 147v348q0 22 -25 22h-27q-25 0 -25 -22v-348q0 -22 25 -22h27q25 0 25 22zM464 518v-394q0 -124 -147 -124h-133q-147 0 -147 124v394q0 124 147 124h133q147 0 147 -124z" />
    <glyph glyph-name="one" unicode="1" horiz-adv-x="323" 
d="M283 642v-642h-175v517h-90v125h265z" />
    <glyph glyph-name="two" unicode="2" horiz-adv-x="469" 
d="M198 495v-73h-175v96q0 124 147 124h121q149 0 149 -124v-92q0 -50 -16.5 -85.5t-53.5 -76.5l-124 -139h194v-125h-412v114l190 204q30 31 40 53.5t10 55.5v68q0 22 -25 22h-20q-25 0 -25 -22z" />
    <glyph glyph-name="three" unicode="3" horiz-adv-x="477" 
d="M200 495v-63h-175v86q0 124 147 124h123q147 0 147 -124v-78q0 -87 -48 -113q28 -12 38 -36.5t10 -66.5v-100q0 -124 -147 -124h-123q-147 0 -147 124v86h175v-63q0 -22 25 -22h20q25 0 25 22v99q0 22 -25 22h-81v115h81q25 0 25 22v90q0 22 -25 22h-20q-25 0 -25 -22z
" />
    <glyph glyph-name="four" unicode="4" horiz-adv-x="507" 
d="M507 242v-127h-68v-115h-164v115h-265v155l241 372h176l-258 -400h106v127h164v-127h68z" />
    <glyph glyph-name="five" unicode="5" horiz-adv-x="498" 
d="M220 423h101q147 0 147 -124v-175q0 -124 -147 -124h-134q-147 0 -147 124v101h175v-78q0 -22 25 -22h31q25 0 25 22v129q0 22 -25 22h-223v344h410v-125h-238v-94z" />
    <glyph glyph-name="six" unicode="6" horiz-adv-x="494" 
d="M207 385h110q147 0 147 -124v-137q0 -124 -147 -124h-133q-147 0 -147 124v394q0 124 147 124h123q147 0 147 -124v-72h-170v49q0 22 -25 22h-27q-25 0 -25 -22v-110zM294 147v96q0 22 -25 22h-62v-118q0 -22 25 -22h37q25 0 25 22z" />
    <glyph glyph-name="seven" unicode="7" horiz-adv-x="422" 
d="M417 642v-95l-195 -547h-181l189 507h-220v135h407z" />
    <glyph glyph-name="eight" unicode="8" horiz-adv-x="498" 
d="M463 518v-78q0 -87 -48 -113q28 -12 38 -36.5t10 -66.5v-100q0 -124 -147 -124h-134q-147 0 -147 124v100q0 82 47 103q-47 26 -47 113v78q0 124 147 124h134q147 0 147 -124zM296 145v106q0 22 -25 22h-44q-25 0 -25 -22v-106q0 -22 25 -22h44q25 0 25 22zM296 400v97
q0 22 -25 22h-44q-25 0 -25 -22v-97q0 -22 25 -22h44q25 0 25 22z" />
    <glyph glyph-name="nine" unicode="9" horiz-adv-x="494" 
d="M177 642h133q147 0 147 -124v-394q0 -124 -147 -124h-125q-147 0 -147 124v67h170v-44q0 -22 25 -22h29q25 0 25 22v100h-110q-147 0 -147 124v147q0 124 147 124zM225 362h62v133q0 22 -25 22h-37q-25 0 -25 -22v-111q0 -22 25 -22z" />
    <glyph glyph-name="colon" unicode=":" horiz-adv-x="252" 
d="M40 0v164h172v-164h-172zM40 335v164h172v-164h-172z" />
    <glyph glyph-name="semicolon" unicode=";" horiz-adv-x="252" 
d="M40 335v164h172v-164h-172zM40 164h172v-90l-120 -223h-52v313z" />
    <glyph glyph-name="less" unicode="&#x3c;" horiz-adv-x="533" 
d="M508 402l-315 -79l315 -81v-136l-483 146v146l483 138v-134z" />
    <glyph glyph-name="equal" unicode="=" horiz-adv-x="533" 
d="M25 149v129h483v-129h-483zM25 361v129h483v-129h-483z" />
    <glyph glyph-name="greater" unicode="&#x3e;" horiz-adv-x="533" 
d="M340 323l-315 79v134l483 -138v-146l-483 -146v136z" />
    <glyph glyph-name="question" unicode="?" horiz-adv-x="469" 
d="M167 642h135q147 0 147 -124v-100q0 -123 -143 -124l-6 -61h-146l-15 153h110q25 0 25 22v97q0 22 -25 22h-29q-25 0 -25 -22v-68h-175v81q0 124 147 124zM139 0v164h172v-164h-172z" />
    <glyph glyph-name="at" unicode="@" horiz-adv-x="863" 
d="M393 312v-107q0 -20 22 -20h25q24 0 24 27v93q0 27 -24 27h-25q-22 0 -22 -20zM247 324q0 113 121 113h16q68 0 83 -58v58h135v-253h44q25 0 25 22v275q0 22 -25 22h-431q-25 0 -25 -22v-448q0 -22 25 -22h388v-115h-430q-133 0 -133 124v474q0 124 133 124h513
q131 0 131 -124v-290q0 -124 -133 -124h-216v61q-13 -61 -84 -61h-16q-121 0 -121 113v131z" />
    <glyph glyph-name="A" unicode="A" horiz-adv-x="543" 
d="M367 0l-20 96h-154l-21 -96h-172l165 642h213l165 -642h-176zM220 220h100l-49 231z" />
    <glyph glyph-name="B" unicode="B" horiz-adv-x="516" 
d="M309 401v104q0 22 -25 22h-72v-148h72q25 0 25 22zM309 137v105q0 22 -25 22h-72v-149h72q25 0 25 22zM40 642h294q147 0 147 -124v-82q0 -87 -48 -113q28 -12 38 -36.5t10 -66.5v-96q0 -124 -147 -124h-294v642z" />
    <glyph glyph-name="C" unicode="C" horiz-adv-x="495" 
d="M470 402h-175v103q0 22 -25 22h-35q-25 0 -25 -22v-368q0 -22 25 -22h35q25 0 25 22v99h175v-112q0 -124 -147 -124h-141q-147 0 -147 124v394q0 124 147 124h141q147 0 147 -124v-116z" />
    <glyph glyph-name="D" unicode="D" horiz-adv-x="529" 
d="M50 642h295q147 0 147 -124v-394q0 -124 -147 -124h-295v642zM317 137v368q0 22 -25 22h-67v-412h67q25 0 25 22z" />
    <glyph glyph-name="E" unicode="E" horiz-adv-x="449" 
d="M215 125h219v-125h-394v642h385v-125h-210v-131h181v-125h-181v-136z" />
    <glyph glyph-name="F" unicode="F" horiz-adv-x="440" 
d="M425 517h-210v-156h182v-115h-182v-246h-175v642h385v-125z" />
    <glyph glyph-name="G" unicode="G" horiz-adv-x="501" 
d="M471 422h-175v83q0 22 -25 22h-36q-25 0 -25 -22v-368q0 -22 25 -22h36q25 0 25 22v107h-50v111h225v-231q0 -124 -147 -124h-142q-147 0 -147 124v394q0 124 147 124h142q147 0 147 -124v-96z" />
    <glyph glyph-name="H" unicode="H" horiz-adv-x="550" 
d="M338 642h172v-642h-172v254h-126v-254h-172v642h172v-263h126v263z" />
    <glyph glyph-name="I" unicode="I" horiz-adv-x="255" 
d="M40 642h175v-642h-175v642z" />
    <glyph glyph-name="J" unicode="J" horiz-adv-x="457" 
d="M10 257h175v-110q0 -22 25 -22h11q25 0 25 22v495h175v-518q0 -124 -147 -124h-117q-147 0 -147 124v133z" />
    <glyph glyph-name="K" unicode="K" horiz-adv-x="530" 
d="M398 328l126 -328h-188l-120 328l119 314h188zM40 0v642h175v-642h-175z" />
    <glyph glyph-name="L" unicode="L" horiz-adv-x="414" 
d="M215 125h199v-125h-374v642h175v-517z" />
    <glyph glyph-name="M" unicode="M" horiz-adv-x="670" 
d="M196 0h-156v642h191l104 -343l104 343h191v-642h-155v408l-80 -269h-120l-79 267v-406z" />
    <glyph glyph-name="N" unicode="N" horiz-adv-x="533" 
d="M333 642h160v-642h-150l-143 337v-337h-160v642h150l143 -343v343z" />
    <glyph glyph-name="O" unicode="O" horiz-adv-x="516" 
d="M184 642h148q147 0 147 -124v-394q0 -124 -147 -124h-148q-147 0 -147 124v394q0 124 147 124zM304 147v348q0 22 -25 22h-42q-25 0 -25 -22v-348q0 -22 25 -22h42q25 0 25 22z" />
    <glyph glyph-name="P" unicode="P" horiz-adv-x="504" 
d="M40 642h297q147 0 147 -124v-184q0 -124 -147 -124h-122v-210h-175v642zM309 357v138q0 22 -25 22h-69v-182h69q25 0 25 22z" />
    <glyph glyph-name="Q" unicode="Q" horiz-adv-x="516" 
d="M184 0q-147 0 -147 124v394q0 124 147 124h148q147 0 147 -124v-394q0 -62 -37 -93l93 -99h-199l-63 68h-89zM212 495v-348q0 -22 25 -22h42q25 0 25 22v348q0 22 -25 22h-42q-25 0 -25 -22z" />
    <glyph glyph-name="R" unicode="R" horiz-adv-x="514" 
d="M215 228v-228h-175v642h297q147 0 147 -124v-166q0 -95 -86 -117l118 -235h-188l-102 228h-11zM284 517h-69v-170h69q25 0 25 22v126q0 22 -25 22z" />
    <glyph glyph-name="S" unicode="S" horiz-adv-x="491" 
d="M286 147v91q0 22 -25 22h-96q-74 0 -104.5 32.5t-30.5 93.5v132q0 124 146 124h137q146 0 146 -124v-77h-175v54q0 22 -25 22h-29q-25 0 -25 -22v-95q0 -22 25 -22h94q74 0 105.5 -31t31.5 -91v-132q0 -124 -146 -124h-136q-147 0 -147 124v77h175v-54q0 -22 25 -22h29
q25 0 25 22z" />
    <glyph glyph-name="T" unicode="T" horiz-adv-x="432" 
d="M427 642v-125h-124v-517h-175v517h-123v125h422z" />
    <glyph glyph-name="U" unicode="U" horiz-adv-x="522" 
d="M307 642h175v-518q0 -124 -147 -124h-148q-147 0 -147 124v518h175v-495q0 -22 25 -22h42q25 0 25 22v495z" />
    <glyph glyph-name="V" unicode="V" horiz-adv-x="533" 
d="M344 642h182l-158 -642h-203l-158 642h182l77 -429z" />
    <glyph glyph-name="W" unicode="W" horiz-adv-x="836" 
d="M653 642h173l-136 -642h-201l-71 383l-71 -383h-201l-136 642h182l54 -432l86 432h171l86 -432z" />
    <glyph glyph-name="X" unicode="X" horiz-adv-x="521" 
d="M354 326l167 -326h-197l-69 180l-69 -180h-186l157 326l-153 316h198l53 -164l54 164h188z" />
    <glyph glyph-name="Y" unicode="Y" horiz-adv-x="519" 
d="M352 0h-175v208l-177 434h179l84 -271l78 271h178l-167 -432v-210z" />
    <glyph glyph-name="Z" unicode="Z" horiz-adv-x="464" 
d="M444 642v-125l-241 -392h234v-125h-417v125l241 392h-228v125h411z" />
    <glyph glyph-name="bracketleft" unicode="[" horiz-adv-x="317" 
d="M307 666h-92v-698h92v-125h-267v948h267v-125z" />
    <glyph glyph-name="backslash" unicode="\" horiz-adv-x="411" 
d="M-20 702h144l307 -762h-144z" />
    <glyph glyph-name="bracketright" unicode="]" horiz-adv-x="317" 
d="M277 791v-948h-267v125h92v698h-92v125h267z" />
    <glyph glyph-name="asciicircum" unicode="^" horiz-adv-x="704" 
d="M214 669h232l122 -389h-177l-61 245l-61 -245h-177z" />
    <glyph glyph-name="underscore" unicode="_" horiz-adv-x="474" 
d="M0 -155v115h474v-115h-474z" />
    <glyph glyph-name="grave" unicode="`" horiz-adv-x="500" 
d="M266 682l97 -150h-134l-133 150h170z" />
    <glyph glyph-name="a" unicode="a" horiz-adv-x="479" 
d="M272 499h167v-499h-170v54q-19 -54 -88 -54h-18q-133 0 -133 124v251q0 124 133 124h18q77 0 91 -64v64zM225 125h17q27 0 27 30v189q0 30 -27 30h-17q-25 0 -25 -22v-205q0 -22 25 -22z" />
    <glyph glyph-name="b" unicode="b" horiz-adv-x="479" 
d="M298 499h18q133 0 133 -124v-251q0 -124 -133 -124h-18q-77 0 -91 64v-64h-167v669h170v-224q19 54 88 54zM279 147v205q0 22 -25 22h-17q-27 0 -27 -30v-189q0 -30 27 -30h17q25 0 25 22z" />
    <glyph glyph-name="c" unicode="c" horiz-adv-x="451" 
d="M431 306h-164v46q0 22 -25 22h-17q-25 0 -25 -22v-205q0 -22 25 -22h17q25 0 25 22v46h164v-69q0 -124 -147 -124h-107q-147 0 -147 124v251q0 124 147 124h107q147 0 147 -124v-69z" />
    <glyph glyph-name="d" unicode="d" horiz-adv-x="479" 
d="M269 669h170v-669h-167v64q-14 -64 -91 -64h-18q-133 0 -133 124v251q0 124 133 124h18q69 0 88 -54v224zM225 125h17q27 0 27 30v189q0 30 -27 30h-17q-25 0 -25 -22v-205q0 -22 25 -22z" />
    <glyph glyph-name="e" unicode="e" horiz-adv-x="471" 
d="M177 499h122q147 0 147 -124v-170h-255v-66q0 -22 25 -22h44q25 0 25 24v28h161v-45q0 -124 -147 -124h-122q-147 0 -147 124v251q0 124 147 124zM191 297h94v63q0 22 -25 22h-44q-25 0 -25 -22v-63z" />
    <glyph glyph-name="f" unicode="f" horiz-adv-x="314" 
d="M309 549h-53q-25 0 -25 -22v-28h78v-125h-78v-374h-170v374h-51v125h51v46q0 124 147 124h101v-120z" />
    <glyph glyph-name="g" unicode="g" horiz-adv-x="479" 
d="M272 499h167v-504q0 -124 -147 -124h-239v120h191q25 0 25 22v71q-19 -54 -88 -54h-18q-133 0 -133 124v221q0 124 133 124h18q77 0 91 -64v64zM225 155h17q27 0 27 30v159q0 30 -27 30h-17q-25 0 -25 -22v-175q0 -22 25 -22z" />
    <glyph glyph-name="h" unicode="h" horiz-adv-x="484" 
d="M298 499h18q133 0 133 -124v-375h-170v352q0 22 -25 22h-17q-27 0 -27 -30v-344h-170v669h170v-224q19 54 88 54z" />
    <glyph glyph-name="i" unicode="i" 
d="M37 549v120h176v-120h-176zM210 0h-170v499h170v-499z" />
    <glyph glyph-name="j" unicode="j" 
d="M37 549v120h176v-120h-176zM40 13v486h170v-504q0 -124 -147 -124h-81v120h33q25 0 25 22z" />
    <glyph glyph-name="k" unicode="k" horiz-adv-x="475" 
d="M210 0h-170v669h170v-397l94 227h176l-107 -246l107 -253h-177l-93 233v-233z" />
    <glyph glyph-name="l" unicode="l" 
d="M210 0h-170v669h170v-669z" />
    <glyph glyph-name="m" unicode="m" horiz-adv-x="723" 
d="M537 499h18q133 0 133 -124v-375h-170v352q0 22 -25 22h-17q-27 0 -27 -30v-344h-170v352q0 22 -25 22h-17q-27 0 -27 -30v-344h-170v499h167v-64q14 64 91 64h18q93 0 122 -63q8 29 35 46t64 17z" />
    <glyph glyph-name="n" unicode="n" horiz-adv-x="484" 
d="M298 499h18q133 0 133 -124v-375h-170v352q0 22 -25 22h-17q-27 0 -27 -30v-344h-170v499h167v-64q14 64 91 64z" />
    <glyph glyph-name="o" unicode="o" horiz-adv-x="481" 
d="M177 499h127q76 0 109 -32t33 -92v-251q0 -60 -33 -92t-109 -32h-127q-76 0 -109 32t-33 92v251q0 60 33 92t109 32zM279 140v219q0 22 -25 22h-27q-25 0 -25 -22v-219q0 -22 25 -22h27q25 0 25 22z" />
    <glyph glyph-name="p" unicode="p" horiz-adv-x="479" 
d="M298 499h18q133 0 133 -124v-251q0 -124 -133 -124h-18q-69 0 -88 54v-183h-170v628h167v-64q14 64 91 64zM279 147v205q0 22 -25 22h-17q-27 0 -27 -30v-189q0 -30 27 -30h17q25 0 25 22z" />
    <glyph glyph-name="q" unicode="q" horiz-adv-x="479" 
d="M272 499h167v-628h-170v183q-19 -54 -88 -54h-18q-133 0 -133 124v251q0 124 133 124h18q77 0 91 -64v64zM225 125h17q27 0 27 30v189q0 30 -27 30h-17q-25 0 -25 -22v-205q0 -22 25 -22z" />
    <glyph glyph-name="r" unicode="r" horiz-adv-x="335" 
d="M315 504h15v-148h-57q-63 0 -63 -68v-288h-170v499h167v-77q8 38 36 60t72 22z" />
    <glyph glyph-name="s" unicode="s" horiz-adv-x="445" 
d="M255 132v40q0 22 -25 22h-61q-144 0 -144 123v58q0 124 147 124h93q147 0 147 -124v-42h-162v34q0 22 -25 22h-10q-25 0 -25 -22v-44q0 -22 25 -22h61q77 0 110.5 -31.5t33.5 -90.5v-55q0 -124 -147 -124h-98q-147 0 -147 124v41h165v-33q0 -22 25 -22h12q25 0 25 22z
" />
    <glyph glyph-name="t" unicode="t" horiz-adv-x="303" 
d="M293 374h-63v-227q0 -22 25 -22h37v-125h-85q-147 0 -147 124v250h-55v125h55v98h170v-98h63v-125z" />
    <glyph glyph-name="u" unicode="u" horiz-adv-x="484" 
d="M274 499h170v-499h-167v64q-14 -64 -91 -64h-18q-133 0 -133 124v375h170v-352q0 -22 25 -22h17q27 0 27 30v344z" />
    <glyph glyph-name="v" unicode="v" horiz-adv-x="459" 
d="M169 499l61 -320l60 320h169l-128 -499h-203l-128 499h169z" />
    <glyph glyph-name="w" unicode="w" horiz-adv-x="679" 
d="M518 499h156l-107 -499h-169l-61 294l-62 -294h-169l-101 499h158l37 -315l65 315h149l58 -313z" />
    <glyph glyph-name="x" unicode="x" horiz-adv-x="447" 
d="M323 258l124 -258h-172l-54 148l-49 -148h-166l114 255l-120 244h178l43 -139l43 139h169z" />
    <glyph glyph-name="y" unicode="y" horiz-adv-x="464" 
d="M150 -129h-84v123h74q24 0 38 8t24 38h-65l-137 459h178l61 -304l54 304h171l-125 -489q-21 -69 -64 -104t-125 -35z" />
    <glyph glyph-name="z" unicode="z" horiz-adv-x="391" 
d="M381 119v-119h-371v119l179 261h-166v119h348v-119l-182 -261h192z" />
    <glyph glyph-name="braceleft" unicode="{" horiz-adv-x="326" 
d="M265 654v-211q0 -106 -78 -125q35 -2 56.5 -32t21.5 -82v-223q0 -22 25 -22h26v-115h-79q-76 0 -111.5 36.5t-35.5 97.5v202q0 42 -15.5 61t-51.5 19h-7v115h7q36 0 51.5 19.5t15.5 62.5v200q0 61 35.5 97.5t111.5 36.5h79v-115h-26q-25 0 -25 -22z" />
    <glyph glyph-name="bar" unicode="|" horiz-adv-x="266" 
d="M50 833h155v-1026h-155v1026z" />
    <glyph glyph-name="braceright" unicode="}" horiz-adv-x="326" 
d="M61 443v211q0 22 -25 22h-26v115h79q76 0 111.5 -36.5t35.5 -97.5v-200q0 -43 15.5 -62.5t51.5 -19.5h7v-115h-7q-36 0 -51.5 -19t-15.5 -61v-202q0 -61 -35.5 -97.5t-111.5 -36.5h-79v115h26q25 0 25 22v223q0 52 21.5 82t56.5 32q-78 19 -78 125z" />
    <glyph glyph-name="asciitilde" unicode="~" horiz-adv-x="719" 
d="M441 204q-39 0 -89.5 38.5t-70 38.5t-25 -7t-5.5 -25v-45h-155v85q0 52 26 76t85 24h67q57 0 126 -58q22 -19 37.5 -19t21 7t5.5 25v45h155v-85q0 -52 -26 -76t-85 -24h-67z" />
    <glyph glyph-name="uni00A0" unicode="&#xa0;" horiz-adv-x="200" 
 />
    <glyph glyph-name="exclamdown" unicode="&#xa1;" horiz-adv-x="297" 
d="M247 -143h-197l30 409h137zM62 335v164h172v-164h-172z" />
    <glyph glyph-name="cent" unicode="&#xa2;" horiz-adv-x="451" 
d="M431 306h-164v46q0 22 -25 22h-17q-25 0 -25 -22v-205q0 -22 25 -22h17q25 0 25 22v46h164v-69q0 -111 -116 -122v-82h-165v81q-120 11 -120 123v251q0 112 120 123v81h165v-82q116 -11 116 -122v-69z" />
    <glyph glyph-name="sterling" unicode="&#xa3;" horiz-adv-x="506" 
d="M491 125v-125h-471v116q30 4 37 21.5t7 60.5v46h-44v115h44v159q0 124 147 124h129q147 0 147 -124v-93h-175v70q0 22 -25 22h-23q-25 0 -25 -22v-136h148v-115h-148v-47q0 -52 -27 -72h279z" />
    <glyph glyph-name="currency" unicode="&#xa4;" horiz-adv-x="595" 
d="M508 326v-52q0 -55 -13 -94l45 -45l-101 -102l-60 60q-21 -4 -53 -4h-75q-29 0 -57 5l-61 -61l-101 102l49 49q-12 35 -12 90v52q0 64 17 105l-54 54l101 102l78 -77q24 2 40 2h75q14 0 36 -2l77 77l101 -102l-51 -51q19 -39 19 -108zM280 198h15q42 0 59.5 14.5
t17.5 61.5v51q0 47 -17.5 62t-59.5 15h-15q-42 0 -59.5 -15t-17.5 -62v-51q0 -47 17 -61.5t60 -14.5z" />
    <glyph glyph-name="yen" unicode="&#xa5;" horiz-adv-x="529" 
d="M493 230v-105h-136v-125h-175v125h-139v105h130l-14 34h-116v105h73l-111 273h179l84 -271l78 271h178l-106 -273h74v-105h-114l-13 -34h128z" />
    <glyph glyph-name="brokenbar" unicode="&#xa6;" horiz-adv-x="266" 
d="M215 378h-175v355h175v-355zM40 262h175v-355h-175v355z" />
    <glyph glyph-name="section" unicode="&#xa7;" horiz-adv-x="540" 
d="M480 512h-170v25q0 22 -25 22h-21q-25 0 -25 -22v-40q0 -22 25 -22h61q147 0 147 -124v-71q0 -61 -26 -91q25 -31 25 -81v-61q0 -124 -147 -124h-117q-147 0 -147 124v33h170v-25q0 -22 25 -22h21q25 0 25 22v40q0 22 -25 22h-61q-147 0 -147 124v57q0 68 33 97
q-32 32 -32 89v61q0 124 147 124h117q147 0 147 -124v-33zM312 254v84q0 22 -25 22h-34q-25 0 -25 -22v-84q0 -22 25 -22h34q25 0 25 22z" />
    <glyph glyph-name="dieresis" unicode="&#xa8;" horiz-adv-x="500" 
d="M294 542v130h152v-130h-152zM54 542v130h152v-130h-152z" />
    <glyph glyph-name="copyright" unicode="&#xa9;" horiz-adv-x="772" 
d="M413 260v34h117v-54q0 -85 -101 -85h-84q-101 0 -101 85v163q0 85 101 85h84q101 0 101 -85v-53h-117v33q0 15 -17 15h-18q-17 0 -17 -15v-123q0 -15 17 -15h18q17 0 17 15zM321 99h130q88 0 124.5 37t36.5 150v70q0 113 -36.5 150t-124.5 37h-130q-88 0 -124.5 -37
t-36.5 -150v-70q0 -113 36.5 -150t124.5 -37zM742 338v-34q0 -141 -52 -219q-57 -85 -206 -85h-196q-149 0 -206 85q-52 78 -52 219v34q0 141 52 219q57 85 206 85h196q149 0 206 -85q52 -78 52 -219z" />
    <glyph glyph-name="ordfeminine" unicode="&#xaa;" horiz-adv-x="337" 
d="M205 642h102v-353h-105v30q-11 -30 -52 -30h-31q-94 0 -94 88v177q0 88 94 88h27q49 0 59 -43v43zM147 375h36q19 0 19 22v140q0 21 -19 21h-36q-17 0 -17 -16v-151q0 -16 17 -16z" />
    <glyph glyph-name="guillemotleft" unicode="&#xab;" horiz-adv-x="501" 
d="M337 96l-110 153l110 151h159l-107 -151l107 -153h-159zM125 96l-110 153l110 151h159l-107 -151l107 -153h-159z" />
    <glyph glyph-name="logicalnot" unicode="&#xac;" horiz-adv-x="567" 
d="M507 417v-316h-115v141h-342v175h457z" />
    <glyph glyph-name="uni00AD" unicode="&#xad;" horiz-adv-x="343" 
d="M20 245v115h303v-115h-303z" />
    <glyph glyph-name="registered" unicode="&#xae;" horiz-adv-x="478" 
d="M256 567v28q0 7 -8 7h-22v-42h22q8 0 8 7zM169 642h96q48 0 48 -40v-42q0 -30 -27 -39l39 -68h-62l-33 66h-4v-66h-57v189zM201 420h76q52 0 73 20t21 86v42q0 65 -21 85t-73 20h-76q-52 0 -73.5 -20t-21.5 -85v-42q0 -66 21.5 -86t73.5 -20zM448 556v-19
q0 -87 -33.5 -133t-118.5 -46h-115q-85 0 -118 46t-33 133v19q0 88 33 133.5t118 45.5h115q85 0 118.5 -46t33.5 -133z" />
    <glyph glyph-name="macron" unicode="&#xaf;" horiz-adv-x="500" 
d="M55 555v106h389v-106h-389z" />
    <glyph glyph-name="degree" unicode="&#xb0;" horiz-adv-x="484" 
d="M286 430v85q0 22 -25 22h-38q-25 0 -25 -22v-85q0 -22 25 -22h38q25 0 25 22zM444 518v-91q0 -60 -33 -92t-109 -32h-120q-76 0 -109 32t-33 92v91q0 60 33 92t109 32h120q76 0 109 -32t33 -92z" />
    <glyph glyph-name="plusminus" unicode="&#xb1;" horiz-adv-x="533" 
d="M348 492h160v-121h-160v-75h-163v75h-160v121h160v75h163v-75zM25 139v125h483v-125h-483z" />
    <glyph glyph-name="twosuperior" unicode="&#xb2;" horiz-adv-x="287" 
d="M119 561v-50h-106v63q0 68 81 68h88q80 0 80 -68v-42q0 -66 -44 -105l-73 -65h117v-73h-247v64l120 111q14 13 18 24t4 36v37q0 12 -13 12h-11q-14 0 -14 -12z" />
    <glyph glyph-name="threesuperior" unicode="&#xb3;" horiz-adv-x="283" 
d="M119 561v-34h-106v47q0 68 81 68h87q81 0 81 -68v-47q0 -48 -26 -62q26 -12 26 -57v-51q0 -68 -81 -68h-87q-81 0 -81 68v48h106v-35q0 -12 14 -12h11q13 0 13 12v50q0 12 -13 12h-37v64h37q13 0 13 12v53q0 12 -13 12h-11q-14 0 -14 -12z" />
    <glyph glyph-name="acute" unicode="&#xb4;" horiz-adv-x="500" 
d="M116 532l97 150h170l-133 -150h-134z" />
    <glyph glyph-name="uni00B5" unicode="&#xb5;" horiz-adv-x="489" 
d="M279 499h170v-499h-167v64q-12 -54 -72 -63v-130h-170v628h170v-352q0 -22 25 -22h17q27 0 27 30v344z" />
    <glyph glyph-name="paragraph" unicode="&#xb6;" horiz-adv-x="569" 
d="M384 642h135v-771h-135v771zM331 642v-771h-135v339h-22q-147 0 -147 124v184q0 124 147 124h157z" />
    <glyph glyph-name="periodcentered" unicode="&#xb7;" horiz-adv-x="272" 
d="M49 258v154h172v-154h-172z" />
    <glyph glyph-name="cedilla" unicode="&#xb8;" horiz-adv-x="500" 
d="M199 -123v77h160v-90q0 -124 -147 -124h-91v115h53q25 0 25 22z" />
    <glyph glyph-name="onesuperior" unicode="&#xb9;" horiz-adv-x="218" 
d="M169 642v-353h-110v284h-49v69h159z" />
    <glyph glyph-name="ordmasculine" unicode="&#xba;" horiz-adv-x="331" 
d="M125 642h80q54 0 77.5 -22.5t23.5 -65.5v-177q0 -88 -101 -88h-80q-100 0 -100 88v177q0 88 100 88zM201 373v184q0 16 -18 16h-35q-18 0 -18 -16v-184q0 -15 18 -15h35q18 0 18 15z" />
    <glyph glyph-name="guillemotright" unicode="&#xbb;" horiz-adv-x="501" 
d="M496 249l-110 -153h-159l107 153l-107 151h159zM284 249l-110 -153h-159l107 153l-107 151h159z" />
    <glyph glyph-name="questiondown" unicode="&#xbf;" horiz-adv-x="469" 
d="M274 62h175v-81q0 -124 -147 -124h-135q-147 0 -147 124v100q0 123 143 124l6 61h146l15 -153h-110q-25 0 -25 -22v-97q0 -22 25 -22h29q25 0 25 22v68zM330 499v-164h-172v164h172z" />
    <glyph glyph-name="Agrave" unicode="&#xc0;" horiz-adv-x="543" 
d="M367 0l-20 96h-154l-21 -96h-172l165 642h213l165 -642h-176zM220 220h100l-49 231zM331 675h-134l-133 150h170z" />
    <glyph glyph-name="Aacute" unicode="&#xc1;" horiz-adv-x="543" 
d="M367 0l-20 96h-154l-21 -96h-172l165 642h213l165 -642h-176zM220 220h100l-49 231zM474 825l-133 -150h-134l97 150h170z" />
    <glyph glyph-name="Acircumflex" unicode="&#xc2;" horiz-adv-x="543" 
d="M367 0l-20 96h-154l-21 -96h-172l165 642h213l165 -642h-176zM220 220h100l-49 231zM271 744l-53 -69h-157l133 150h154l133 -150h-157z" />
    <glyph glyph-name="Atilde" unicode="&#xc3;" horiz-adv-x="543" 
d="M367 0l-20 96h-154l-21 -96h-172l165 642h213l165 -642h-176zM220 220h100l-49 231zM198 706v-31h-135v55q0 47 22.5 71t76.5 24h19q34 0 75 -26t47 -26q18 0 18 21v31h135v-60q0 -46 -23 -68t-78 -22h-17q-34 0 -75 26t-47 26q-18 0 -18 -21z" />
    <glyph glyph-name="Adieresis" unicode="&#xc4;" horiz-adv-x="543" 
d="M367 0l-20 96h-154l-21 -96h-172l165 642h213l165 -642h-176zM220 220h100l-49 231zM227 805v-130h-152v130h152zM467 805v-130h-152v130h152z" />
    <glyph glyph-name="Aring" unicode="&#xc5;" horiz-adv-x="543" 
d="M367 0l-20 96h-154l-21 -96h-172l165 642h213l165 -642h-176zM220 220h100l-49 231zM315 674h-86q-102 0 -102 89v16q0 90 102 90h86q102 0 102 -90v-16q0 -89 -102 -89zM233 778v-14q0 -19 20 -19h38q20 0 20 19v14q0 19 -20 19h-38q-20 0 -20 -19z" />
    <glyph glyph-name="AE" unicode="&#xc6;" horiz-adv-x="770" 
d="M534 125h219v-125h-384v115h-154l-43 -115h-172l255 642h489v-125h-210v-131h181v-125h-181v-136zM369 235v296l-110 -296h110z" />
    <glyph glyph-name="Ccedilla" unicode="&#xc7;" horiz-adv-x="495" 
d="M470 402h-175v103q0 22 -25 22h-35q-25 0 -25 -22v-368q0 -22 25 -22h35q25 0 25 22v99h175v-112q0 -124 -147 -124h-141q-147 0 -147 124v394q0 124 147 124h141q147 0 147 -124v-116zM170 -123v77h160v-90q0 -124 -147 -124h-91v115h53q25 0 25 22z" />
    <glyph glyph-name="Egrave" unicode="&#xc8;" horiz-adv-x="449" 
d="M215 125h219v-125h-394v642h385v-125h-210v-131h181v-125h-181v-136zM302 675h-134l-133 150h170z" />
    <glyph glyph-name="Eacute" unicode="&#xc9;" horiz-adv-x="449" 
d="M215 125h219v-125h-394v642h385v-125h-210v-131h181v-125h-181v-136zM432 825l-133 -150h-134l97 150h170z" />
    <glyph glyph-name="Ecircumflex" unicode="&#xca;" horiz-adv-x="449" 
d="M215 261v-136h219v-125h-394v642h385v-125h-210v-131h181v-125h-181zM236 744l-53 -69h-157l133 150h154l133 -150h-157z" />
    <glyph glyph-name="Edieresis" unicode="&#xcb;" horiz-adv-x="500" 
d="M215 125h219v-125h-394v642h385v-125h-210v-131h181v-125h-181v-136zM190 805v-130h-152v130h152zM430 805v-130h-152v130h152z" />
    <glyph glyph-name="Igrave" unicode="&#xcc;" horiz-adv-x="255" 
d="M97 825l97 -150h-134l-133 150h170zM40 642h175v-642h-175v642z" />
    <glyph glyph-name="Iacute" unicode="&#xcd;" horiz-adv-x="255" 
d="M56 675l97 150h170l-133 -150h-134zM40 642h175v-642h-175v642z" />
    <glyph glyph-name="Icircumflex" unicode="&#xce;" horiz-adv-x="255" 
d="M-83 675l133 150h154l133 -150h-157l-53 69l-53 -69h-157zM40 642h175v-642h-175v642z" />
    <glyph glyph-name="Idieresis" unicode="&#xcf;" horiz-adv-x="255" 
d="M40 642h175v-642h-175v642zM172 675v130h152v-130h-152zM-68 675v130h152v-130h-152z" />
    <glyph glyph-name="Eth" unicode="&#xd0;" horiz-adv-x="527" 
d="M50 642h295q147 0 147 -124v-394q0 -124 -147 -124h-295v269h-55v115h55v258zM317 137v368q0 22 -25 22h-67v-143h55v-115h-55v-154h67q25 0 25 22z" />
    <glyph glyph-name="Ntilde" unicode="&#xd1;" horiz-adv-x="533" 
d="M347 675q-34 0 -75 26t-47 26q-18 0 -18 -21v-31h-135v55q0 47 22.5 71t76.5 24h19q34 0 75 -26t47 -26q18 0 18 21v31h135v-60q0 -46 -23 -68t-78 -22h-17zM333 642h160v-642h-150l-143 337v-337h-160v642h150l143 -343v343z" />
    <glyph glyph-name="Ograve" unicode="&#xd2;" horiz-adv-x="516" 
d="M184 642h148q147 0 147 -124v-394q0 -124 -147 -124h-148q-147 0 -147 124v394q0 124 147 124zM304 147v348q0 22 -25 22h-42q-25 0 -25 -22v-348q0 -22 25 -22h42q25 0 25 22zM322 675h-134l-133 150h170z" />
    <glyph glyph-name="Oacute" unicode="&#xd3;" horiz-adv-x="516" 
d="M184 642h148q147 0 147 -124v-394q0 -124 -147 -124h-148q-147 0 -147 124v394q0 124 147 124zM304 147v348q0 22 -25 22h-42q-25 0 -25 -22v-348q0 -22 25 -22h42q25 0 25 22zM462 825l-133 -150h-134l97 150h170z" />
    <glyph glyph-name="Ocircumflex" unicode="&#xd4;" horiz-adv-x="516" 
d="M184 642h148q147 0 147 -124v-394q0 -124 -147 -124h-148q-147 0 -147 124v394q0 124 147 124zM304 147v348q0 22 -25 22h-42q-25 0 -25 -22v-348q0 -22 25 -22h42q25 0 25 22zM256 744l-53 -69h-157l133 150h154l133 -150h-157z" />
    <glyph glyph-name="Otilde" unicode="&#xd5;" horiz-adv-x="516" 
d="M184 642h148q147 0 147 -124v-394q0 -124 -147 -124h-148q-147 0 -147 124v394q0 124 147 124zM304 147v348q0 22 -25 22h-42q-25 0 -25 -22v-348q0 -22 25 -22h42q25 0 25 22zM194 706v-31h-135v55q0 47 22.5 71t76.5 24h19q34 0 75 -26t47 -26q18 0 18 21v31h135v-60
q0 -46 -23 -68t-78 -22h-17q-34 0 -75 26t-47 26q-18 0 -18 -21z" />
    <glyph glyph-name="Odieresis" unicode="&#xd6;" horiz-adv-x="500" 
d="M184 642h148q147 0 147 -124v-394q0 -124 -147 -124h-148q-147 0 -147 124v394q0 124 147 124zM304 147v348q0 22 -25 22h-42q-25 0 -25 -22v-348q0 -22 25 -22h42q25 0 25 22zM214 805v-130h-152v130h152zM454 805v-130h-152v130h152z" />
    <glyph glyph-name="multiply" unicode="&#xd7;" horiz-adv-x="482" 
d="M462 435l-124 -124l124 -124l-97 -97l-124 124l-124 -124l-97 97l124 124l-124 124l97 97l124 -124l124 124z" />
    <glyph glyph-name="Oslash" unicode="&#xd8;" horiz-adv-x="516" 
d="M479 518v-394q0 -124 -147 -124h-148q-35 0 -64 8l-16 -28h-74l34 60q-27 30 -27 84v394q0 124 147 124h148q40 0 69 -9l17 29h74l-37 -64q24 -30 24 -80zM202 505v-223l112 197v26q0 22 -25 22h-62q-25 0 -25 -22zM314 137v212l-112 -197v-15q0 -22 25 -22h62
q25 0 25 22z" />
    <glyph glyph-name="Ugrave" unicode="&#xd9;" horiz-adv-x="522" 
d="M307 642h175v-518q0 -124 -147 -124h-148q-147 0 -147 124v518h175v-495q0 -22 25 -22h42q25 0 25 22v495zM326 675h-134l-133 150h170z" />
    <glyph glyph-name="Uacute" unicode="&#xda;" horiz-adv-x="522" 
d="M307 642h175v-518q0 -124 -147 -124h-148q-147 0 -147 124v518h175v-495q0 -22 25 -22h42q25 0 25 22v495zM453 825l-133 -150h-134l97 150h170z" />
    <glyph glyph-name="Ucircumflex" unicode="&#xdb;" horiz-adv-x="522" 
d="M307 642h175v-518q0 -124 -147 -124h-148q-147 0 -147 124v518h175v-495q0 -22 25 -22h42q25 0 25 22v495zM261 744l-53 -69h-157l133 150h154l133 -150h-157z" />
    <glyph glyph-name="Udieresis" unicode="&#xdc;" horiz-adv-x="522" 
d="M307 642h175v-518q0 -124 -147 -124h-148q-147 0 -147 124v518h175v-495q0 -22 25 -22h42q25 0 25 22v495zM216 805v-130h-152v130h152zM456 805v-130h-152v130h152z" />
    <glyph glyph-name="Yacute" unicode="&#xdd;" horiz-adv-x="519" 
d="M352 0h-175v208l-177 434h179l84 -271l78 271h178l-167 -432v-210zM453 825l-133 -150h-134l97 150h170z" />
    <glyph glyph-name="Thorn" unicode="&#xde;" horiz-adv-x="534" 
d="M220 526h112q147 0 147 -124v-163q0 -124 -147 -124h-112v-115h-175v642h175v-116zM304 257v127q0 22 -25 22h-59v-171h59q25 0 25 22z" />
    <glyph glyph-name="germandbls" unicode="&#xdf;" horiz-adv-x="677" 
d="M262 163h170v-26q0 -21 20 -22h18q25 0 25 22v40q0 22 -25 22h-66q-76 0 -106.5 31.5t-30.5 92.5v22q0 57 32 84.5t105 27.5q22 0 22 22v16q0 22 -22 22h-159q-25 0 -25 -22v-495h-175v518q0 61 30.5 92.5t106.5 31.5h291q138 0 138 -116v-63q0 -59 -25 -81.5t-102 -22.5
h-26q-25 0 -25 -22v-7q0 -22 25 -22h60q147 0 147 -124v-60q0 -61 -30.5 -92.5t-106.5 -31.5h-126q-140 3 -140 124v39z" />
    <glyph glyph-name="agrave" unicode="&#xe0;" horiz-adv-x="479" 
d="M272 499h167v-499h-170v54q-19 -54 -88 -54h-18q-133 0 -133 124v251q0 124 133 124h18q77 0 91 -64v64zM225 125h17q27 0 27 30v189q0 30 -27 30h-17q-25 0 -25 -22v-205q0 -22 25 -22zM334 532h-134l-133 150h170z" />
    <glyph glyph-name="aacute" unicode="&#xe1;" horiz-adv-x="479" 
d="M272 499h167v-499h-170v54q-19 -54 -88 -54h-18q-133 0 -133 124v251q0 124 133 124h18q77 0 91 -64v64zM225 125h17q27 0 27 30v189q0 30 -27 30h-17q-25 0 -25 -22v-205q0 -22 25 -22zM443 682l-133 -150h-134l97 150h170z" />
    <glyph glyph-name="acircumflex" unicode="&#xe2;" horiz-adv-x="479" 
d="M272 499h167v-499h-170v54q-19 -54 -88 -54h-18q-133 0 -133 124v251q0 124 133 124h18q77 0 91 -64v64zM225 125h17q27 0 27 30v189q0 30 -27 30h-17q-25 0 -25 -22v-205q0 -22 25 -22zM241 601l-53 -69h-157l133 150h154l133 -150h-157z" />
    <glyph glyph-name="atilde" unicode="&#xe3;" horiz-adv-x="479" 
d="M272 499h167v-499h-170v54q-19 -54 -88 -54h-18q-133 0 -133 124v251q0 124 133 124h18q77 0 91 -64v64zM225 125h17q27 0 27 30v189q0 30 -27 30h-17q-25 0 -25 -22v-205q0 -22 25 -22zM177 563v-31h-135v55q0 47 22.5 71t76.5 24h19q34 0 75 -26t47 -26q18 0 18 21v31
h135v-60q0 -46 -23 -68t-78 -22h-17q-34 0 -75 26t-47 26q-18 0 -18 -21z" />
    <glyph glyph-name="adieresis" unicode="&#xe4;" horiz-adv-x="479" 
d="M294 672h152v-130h-152v130zM272 499h167v-499h-170v54q-19 -54 -88 -54h-18q-133 0 -133 124v251q0 124 133 124h18q77 0 91 -64v64zM225 125h17q27 0 27 30v189q0 30 -27 30h-17q-25 0 -25 -22v-205q0 -22 25 -22zM206 672v-130h-152v130h152z" />
    <glyph glyph-name="aring" unicode="&#xe5;" horiz-adv-x="479" 
d="M272 499h167v-499h-170v54q-19 -54 -88 -54h-18q-133 0 -133 124v251q0 124 133 124h18q77 0 91 -64v64zM225 125h17q27 0 27 30v189q0 30 -27 30h-17q-25 0 -25 -22v-205q0 -22 25 -22zM283 530h-86q-102 0 -102 89v16q0 90 102 90h86q102 0 102 -90v-16q0 -89 -102 -89
zM201 634v-14q0 -19 20 -19h38q20 0 20 19v14q0 19 -20 19h-38q-20 0 -20 -19z" />
    <glyph glyph-name="ae" unicode="&#xe6;" horiz-adv-x="736" 
d="M481 499h62q147 0 147 -124v-174h-251v-59q0 -22 25 -22h36q25 0 25 22v25h165v-43q0 -124 -147 -124h-63q-97 0 -131 56q-14 -26 -45.5 -41t-68.5 -15h-67q-133 0 -133 124v84l239 98v38q0 30 -27 30h-17q-25 0 -25 -22v-43h-170v66q0 124 133 124h68q37 0 68.5 -15
t45.5 -41q34 56 131 56zM230 125h17q27 0 27 30v48l-69 -29v-27q0 -22 25 -22zM439 300h86v57q0 22 -25 22h-36q-25 0 -25 -22v-57z" />
    <glyph glyph-name="ccedilla" unicode="&#xe7;" horiz-adv-x="451" 
d="M431 306h-164v46q0 22 -25 22h-17q-25 0 -25 -22v-205q0 -22 25 -22h17q25 0 25 22v46h164v-69q0 -124 -147 -124h-107q-147 0 -147 124v251q0 124 147 124h107q147 0 147 -124v-69zM156 -123v77h160v-90q0 -124 -147 -124h-91v115h53q25 0 25 22z" />
    <glyph glyph-name="egrave" unicode="&#xe8;" horiz-adv-x="471" 
d="M177 499h122q147 0 147 -124v-170h-255v-66q0 -22 25 -22h44q25 0 25 24v28h161v-45q0 -124 -147 -124h-122q-147 0 -147 124v251q0 124 147 124zM191 297h94v63q0 22 -25 22h-44q-25 0 -25 -22v-63zM293 532h-134l-133 150h170z" />
    <glyph glyph-name="eacute" unicode="&#xe9;" horiz-adv-x="471" 
d="M177 499h122q147 0 147 -124v-170h-255v-66q0 -22 25 -22h44q25 0 25 24v28h161v-45q0 -124 -147 -124h-122q-147 0 -147 124v251q0 124 147 124zM191 297h94v63q0 22 -25 22h-44q-25 0 -25 -22v-63zM437 682l-133 -150h-134l97 150h170z" />
    <glyph glyph-name="ecircumflex" unicode="&#xea;" horiz-adv-x="471" 
d="M177 499h122q147 0 147 -124v-170h-255v-66q0 -22 25 -22h44q25 0 25 24v28h161v-45q0 -124 -147 -124h-122q-147 0 -147 124v251q0 124 147 124zM191 297h94v63q0 22 -25 22h-44q-25 0 -25 -22v-63zM240 601l-53 -69h-157l133 150h154l133 -150h-157z" />
    <glyph glyph-name="edieresis" unicode="&#xeb;" horiz-adv-x="471" 
d="M177 499h122q147 0 147 -124v-170h-255v-66q0 -22 25 -22h44q25 0 25 24v28h161v-45q0 -124 -147 -124h-122q-147 0 -147 124v251q0 124 147 124zM191 297h94v63q0 22 -25 22h-44q-25 0 -25 -22v-63zM194 672v-130h-152v130h152zM434 672v-130h-152v130h152z" />
    <glyph glyph-name="igrave" unicode="&#xec;" 
d="M98 682l97 -150h-134l-133 150h170zM210 0h-170v499h170v-499z" />
    <glyph glyph-name="iacute" unicode="&#xed;" 
d="M54 532l97 150h170l-133 -150h-134zM210 0h-170v499h170v-499z" />
    <glyph glyph-name="icircumflex" unicode="&#xee;" 
d="M-87 532l133 150h154l133 -150h-157l-53 69l-53 -69h-157zM210 0h-170v499h170v-499z" />
    <glyph glyph-name="idieresis" unicode="&#xef;" 
d="M166 542v130h152v-130h-152zM-74 542v130h152v-130h-152zM210 0h-170v499h170v-499z" />
    <glyph glyph-name="eth" unicode="&#xf0;" horiz-adv-x="494" 
d="M457 307v-183q0 -124 -147 -124h-133q-147 0 -147 124v179q0 124 147 124h89q-14 35 -35 64l-116 -35v84l60 18q-39 38 -108 84h235q20 -16 38 -34l87 26v-84l-35 -10q65 -106 65 -233zM290 147v165h-65q-25 0 -25 -22v-143q0 -22 25 -22h40q25 0 25 22z" />
    <glyph glyph-name="ntilde" unicode="&#xf1;" horiz-adv-x="484" 
d="M298 499h18q133 0 133 -124v-375h-170v352q0 22 -25 22h-17q-27 0 -27 -30v-344h-170v499h167v-64q14 64 91 64zM172 563v-31h-135v55q0 47 22.5 71t76.5 24h19q34 0 75 -26t47 -26q18 0 18 21v31h135v-60q0 -46 -23 -68t-78 -22h-17q-34 0 -75 26t-47 26q-18 0 -18 -21z
" />
    <glyph glyph-name="ograve" unicode="&#xf2;" horiz-adv-x="481" 
d="M177 499h127q76 0 109 -32t33 -92v-251q0 -60 -33 -92t-109 -32h-127q-76 0 -109 32t-33 92v251q0 60 33 92t109 32zM279 140v219q0 22 -25 22h-27q-25 0 -25 -22v-219q0 -22 25 -22h27q25 0 25 22zM303 532h-134l-133 150h170z" />
    <glyph glyph-name="oacute" unicode="&#xf3;" horiz-adv-x="481" 
d="M177 499h127q76 0 109 -32t33 -92v-251q0 -60 -33 -92t-109 -32h-127q-76 0 -109 32t-33 92v251q0 60 33 92t109 32zM279 140v219q0 22 -25 22h-27q-25 0 -25 -22v-219q0 -22 25 -22h27q25 0 25 22zM447 682l-133 -150h-134l97 150h170z" />
    <glyph glyph-name="ocircumflex" unicode="&#xf4;" horiz-adv-x="481" 
d="M177 499h127q76 0 109 -32t33 -92v-251q0 -60 -33 -92t-109 -32h-127q-76 0 -109 32t-33 92v251q0 60 33 92t109 32zM279 140v219q0 22 -25 22h-27q-25 0 -25 -22v-219q0 -22 25 -22h27q25 0 25 22zM241 601l-53 -69h-157l133 150h154l133 -150h-157z" />
    <glyph glyph-name="otilde" unicode="&#xf5;" horiz-adv-x="481" 
d="M177 499h127q76 0 109 -32t33 -92v-251q0 -60 -33 -92t-109 -32h-127q-76 0 -109 32t-33 92v251q0 60 33 92t109 32zM279 140v219q0 22 -25 22h-27q-25 0 -25 -22v-219q0 -22 25 -22h27q25 0 25 22zM175 563v-31h-135v55q0 47 22.5 71t76.5 24h19q34 0 75 -26t47 -26
q18 0 18 21v31h135v-60q0 -46 -23 -68t-78 -22h-17q-34 0 -75 26t-47 26q-18 0 -18 -21z" />
    <glyph glyph-name="odieresis" unicode="&#xf6;" horiz-adv-x="481" 
d="M177 499h127q76 0 109 -32t33 -92v-251q0 -60 -33 -92t-109 -32h-127q-76 0 -109 32t-33 92v251q0 60 33 92t109 32zM279 140v219q0 22 -25 22h-27q-25 0 -25 -22v-219q0 -22 25 -22h27q25 0 25 22zM197 672v-130h-152v130h152zM437 672v-130h-152v130h152z" />
    <glyph glyph-name="divide" unicode="&#xf7;" horiz-adv-x="533" 
d="M185 217h163v-115h-163v115zM185 537h163v-115h-163v115zM25 257v125h483v-125h-483z" />
    <glyph glyph-name="oslash" unicode="&#xf8;" horiz-adv-x="481" 
d="M446 375v-251q0 -60 -33 -92t-109 -32h-127q-36 0 -60 7l-18 -27h-74l38 57q-28 29 -28 87v251q0 60 33 92t109 32h127q37 0 61 -7l18 27h74l-38 -58q27 -30 27 -86zM197 364v-125l87 130q-3 17 -25 17h-37q-25 0 -25 -22zM284 135v124l-86 -131q3 -15 24 -15h37
q25 0 25 22z" />
    <glyph glyph-name="ugrave" unicode="&#xf9;" horiz-adv-x="484" 
d="M274 499h170v-499h-167v64q-14 -64 -91 -64h-18q-133 0 -133 124v375h170v-352q0 -22 25 -22h17q27 0 27 30v344zM312 532h-134l-133 150h170z" />
    <glyph glyph-name="uacute" unicode="&#xfa;" horiz-adv-x="484" 
d="M274 499h170v-499h-167v64q-14 -64 -91 -64h-18q-133 0 -133 124v375h170v-352q0 -22 25 -22h17q27 0 27 30v344zM430 682l-133 -150h-134l97 150h170z" />
    <glyph glyph-name="ucircumflex" unicode="&#xfb;" horiz-adv-x="484" 
d="M274 499h170v-499h-167v64q-14 -64 -91 -64h-18q-133 0 -133 124v375h170v-352q0 -22 25 -22h17q27 0 27 30v344zM241 601l-53 -69h-157l133 150h154l133 -150h-157z" />
    <glyph glyph-name="udieresis" unicode="&#xfc;" horiz-adv-x="500" 
d="M274 499h170v-499h-167v64q-14 -64 -91 -64h-18q-133 0 -133 124v375h170v-352q0 -22 25 -22h17q27 0 27 30v344zM195 672v-130h-152v130h152zM435 672v-130h-152v130h152z" />
    <glyph glyph-name="yacute" unicode="&#xfd;" horiz-adv-x="464" 
d="M166 532l97 150h170l-133 -150h-134zM150 -129h-84v123h74q24 0 38 8t24 38h-65l-137 459h178l61 -304l54 304h171l-125 -489q-21 -69 -64 -104t-125 -35z" />
    <glyph glyph-name="thorn" unicode="&#xfe;" horiz-adv-x="489" 
d="M292 499h18q133 0 133 -124v-251q0 -124 -133 -124h-18q-69 0 -88 54v-183h-170v798h167v-234q14 64 91 64zM273 147v205q0 22 -25 22h-17q-27 0 -27 -30v-189q0 -30 27 -30h17q25 0 25 22z" />
    <glyph glyph-name="ydieresis" unicode="&#xff;" horiz-adv-x="500" 
d="M150 -129h-84v123h74q24 0 38 8t24 38h-65l-137 459h178l61 -304l54 304h171l-125 -489q-21 -69 -64 -104t-125 -35zM278 542v130h152v-130h-152zM38 542v130h152v-130h-152z" />
    <glyph glyph-name="Amacron" unicode="&#x100;" horiz-adv-x="543" 
d="M367 0l-20 96h-154l-21 -96h-172l165 642h213l165 -642h-176zM220 220h100l-49 231zM466 781v-106h-389v106h389z" />
    <glyph glyph-name="amacron" unicode="&#x101;" horiz-adv-x="479" 
d="M272 499h167v-499h-170v54q-19 -54 -88 -54h-18q-133 0 -133 124v251q0 124 133 124h18q77 0 91 -64v64zM225 125h17q27 0 27 30v189q0 30 -27 30h-17q-25 0 -25 -22v-205q0 -22 25 -22zM434 661v-106h-389v106h389z" />
    <glyph glyph-name="Abreve" unicode="&#x102;" horiz-adv-x="543" 
d="M367 0l-20 96h-154l-21 -96h-172l165 642h213l165 -642h-176zM220 220h100l-49 231zM321 675h-100q-147 0 -147 124v26h150v-33q0 -22 25 -22h44q25 0 25 22v33h150v-26q0 -124 -147 -124z" />
    <glyph glyph-name="abreve" unicode="&#x103;" horiz-adv-x="479" 
d="M307 682h150v-26q0 -124 -147 -124h-100q-147 0 -147 124v26h150v-33q0 -22 25 -22h44q25 0 25 22v33zM272 499h167v-499h-170v54q-19 -54 -88 -54h-18q-133 0 -133 124v251q0 124 133 124h18q77 0 91 -64v64zM225 125h17q27 0 27 30v189q0 30 -27 30h-17q-25 0 -25 -22
v-205q0 -22 25 -22z" />
    <glyph glyph-name="Aogonek" unicode="&#x104;" horiz-adv-x="543" 
d="M472 -177h91v-97h-115q-64 0 -89.5 26.5t-25.5 78.5v48q0 51 25.5 77.5t89.5 26.5h6v17h-87l-20 96h-154l-21 -96h-172l165 642h213l161 -627h6v-129h-73q-21 0 -21 -18v-27q0 -18 21 -18zM220 220h100l-49 231z" />
    <glyph glyph-name="aogonek" unicode="&#x105;" horiz-adv-x="479" 
d="M366 -177h91v-97h-115q-64 0 -89.5 26.5t-25.5 78.5v48q0 51 25.5 77.5t89.5 26.5h6v17h-79v54q-19 -54 -88 -54h-18q-133 0 -133 124v251q0 124 133 124h18q77 0 91 -64v64h167v-613h-73q-21 0 -21 -18v-27q0 -18 21 -18zM225 125h17q27 0 27 30v189q0 30 -27 30h-17
q-25 0 -25 -22v-205q0 -22 25 -22z" />
    <glyph glyph-name="Cacute" unicode="&#x106;" horiz-adv-x="495" 
d="M470 402h-175v103q0 22 -25 22h-35q-25 0 -25 -22v-368q0 -22 25 -22h35q25 0 25 22v99h175v-112q0 -124 -147 -124h-141q-147 0 -147 124v394q0 124 147 124h141q147 0 147 -124v-116zM450 825l-133 -150h-134l97 150h170z" />
    <glyph glyph-name="cacute" unicode="&#x107;" horiz-adv-x="451" 
d="M177 499h107q147 0 147 -124v-69h-164v46q0 22 -25 22h-17q-25 0 -25 -22v-205q0 -22 25 -22h17q25 0 25 22v46h164v-69q0 -124 -147 -124h-107q-147 0 -147 124v251q0 124 147 124zM433 682l-133 -150h-134l97 150h170z" />
    <glyph glyph-name="Ccaron" unicode="&#x10c;" horiz-adv-x="495" 
d="M470 402h-175v103q0 22 -25 22h-35q-25 0 -25 -22v-368q0 -22 25 -22h35q25 0 25 22v99h175v-112q0 -124 -147 -124h-141q-147 0 -147 124v394q0 124 147 124h141q147 0 147 -124v-116zM327 675h-154l-133 150h157l53 -69l53 69h157z" />
    <glyph glyph-name="ccaron" unicode="&#x10d;" horiz-adv-x="451" 
d="M177 499h107q147 0 147 -124v-69h-164v46q0 22 -25 22h-17q-25 0 -25 -22v-205q0 -22 25 -22h17q25 0 25 22v46h164v-69q0 -124 -147 -124h-107q-147 0 -147 124v251q0 124 147 124zM303 532h-154l-133 150h157l53 -69l53 69h157z" />
    <glyph glyph-name="Dcaron" unicode="&#x10e;" horiz-adv-x="529" 
d="M50 642h295q147 0 147 -124v-394q0 -124 -147 -124h-295v642zM317 137v368q0 22 -25 22h-67v-412h67q25 0 25 22zM337 675h-154l-133 150h157l53 -69l53 69h157z" />
    <glyph glyph-name="dcaron" unicode="&#x10f;" horiz-adv-x="520" 
d="M479 669h116v-77l-76 -136h-40v213zM269 669h170v-669h-167v64q-14 -64 -91 -64h-18q-133 0 -133 124v251q0 124 133 124h18q69 0 88 -54v224zM225 125h17q27 0 27 30v189q0 30 -27 30h-17q-25 0 -25 -22v-205q0 -22 25 -22z" />
    <glyph glyph-name="Dcroat" unicode="&#x110;" horiz-adv-x="537" 
d="M50 642h295q147 0 147 -124v-394q0 -124 -147 -124h-295v269h-55v115h55v258zM317 147v348q0 22 -25 22h-67v-133h55v-115h-55v-144h67q25 0 25 22z" />
    <glyph glyph-name="dcroat" unicode="&#x111;" horiz-adv-x="484" 
d="M494 622v-75h-50v-547h-167v64q-14 -64 -91 -64h-18q-133 0 -133 124v251q0 124 133 124h18q69 0 88 -54v102h-60v75h60v47h170v-47h50zM230 125h17q27 0 27 30v189q0 30 -27 30h-17q-25 0 -25 -22v-205q0 -22 25 -22z" />
    <glyph glyph-name="Emacron" unicode="&#x112;" horiz-adv-x="449" 
d="M215 125h219v-125h-394v642h385v-125h-210v-131h181v-125h-181v-136zM425 781v-106h-389v106h389z" />
    <glyph glyph-name="emacron" unicode="&#x113;" horiz-adv-x="471" 
d="M177 499h122q147 0 147 -124v-170h-255v-66q0 -22 25 -22h44q25 0 25 24v28h161v-45q0 -124 -147 -124h-122q-147 0 -147 124v251q0 124 147 124zM191 297h94v63q0 22 -25 22h-44q-25 0 -25 -22v-63zM430 661v-106h-389v106h389z" />
    <glyph glyph-name="Edotaccent" unicode="&#x116;" horiz-adv-x="449" 
d="M215 125h219v-125h-394v642h385v-125h-210v-131h181v-125h-181v-136zM320 805v-130h-162v130h162z" />
    <glyph glyph-name="edotaccent" unicode="&#x117;" horiz-adv-x="471" 
d="M177 499h122q147 0 147 -124v-170h-255v-66q0 -22 25 -22h44q25 0 25 24v28h161v-45q0 -124 -147 -124h-122q-147 0 -147 124v251q0 124 147 124zM191 297h94v63q0 22 -25 22h-44q-25 0 -25 -22v-63zM317 672v-130h-162v130h162z" />
    <glyph glyph-name="Eogonek" unicode="&#x118;" horiz-adv-x="449" 
d="M362 -177h91v-97h-115q-64 0 -89.5 26.5t-25.5 78.5v48q0 51 25.5 77.5t89.5 26.5h6v17h-304v642h385v-125h-210v-131h181v-125h-181v-136h219v-110h1v-129h-73q-21 0 -21 -18v-27q0 -18 21 -18z" />
    <glyph glyph-name="eogonek" unicode="&#x119;" horiz-adv-x="471" 
d="M177 499h122q147 0 147 -124v-170h-255v-66q0 -22 25 -22h44q25 0 25 24v28h161v-45q0 -124 -147 -124h-2v-114h-73q-21 0 -21 -18v-27q0 -18 21 -18h91v-97h-115q-64 0 -89.5 26.5t-25.5 78.5v48q0 51 25.5 77.5t89.5 26.5h6v17h-29q-147 0 -147 124v251q0 124 147 124z
M191 297h94v63q0 22 -25 22h-44q-25 0 -25 -22v-63z" />
    <glyph glyph-name="Ecaron" unicode="&#x11a;" horiz-adv-x="449" 
d="M215 261v-136h219v-125h-394v642h385v-125h-210v-131h181v-125h-181zM316 675h-154l-133 150h157l53 -69l53 69h157z" />
    <glyph glyph-name="ecaron" unicode="&#x11b;" horiz-adv-x="471" 
d="M177 499h122q147 0 147 -124v-170h-255v-66q0 -22 25 -22h44q25 0 25 24v28h161v-45q0 -124 -147 -124h-122q-147 0 -147 124v251q0 124 147 124zM191 297h94v63q0 22 -25 22h-44q-25 0 -25 -22v-63zM316 532h-154l-133 150h157l53 -69l53 69h157z" />
    <glyph glyph-name="Gbreve" unicode="&#x11e;" horiz-adv-x="501" 
d="M471 422h-175v83q0 22 -25 22h-36q-25 0 -25 -22v-368q0 -22 25 -22h36q25 0 25 22v107h-50v111h225v-231q0 -124 -147 -124h-142q-147 0 -147 124v394q0 124 147 124h142q147 0 147 -124v-96zM303 675h-100q-147 0 -147 124v26h150v-33q0 -22 25 -22h44q25 0 25 22v33
h150v-26q0 -124 -147 -124z" />
    <glyph glyph-name="gbreve" unicode="&#x11f;" horiz-adv-x="479" 
d="M272 499h167v-504q0 -124 -147 -124h-239v120h191q25 0 25 22v71q-19 -54 -88 -54h-18q-133 0 -133 124v221q0 124 133 124h18q77 0 91 -64v64zM225 155h17q27 0 27 30v159q0 30 -27 30h-17q-25 0 -25 -22v-175q0 -22 25 -22zM289 532h-100q-147 0 -147 124v26h150v-33
q0 -22 25 -22h44q25 0 25 22v33h150v-26q0 -124 -147 -124z" />
    <glyph glyph-name="uni0122" unicode="&#x122;" horiz-adv-x="501" 
d="M471 422h-175v83q0 22 -25 22h-36q-25 0 -25 -22v-368q0 -22 25 -22h36q25 0 25 22v107h-50v111h225v-231q0 -124 -147 -124h-142q-147 0 -147 124v394q0 124 147 124h142q147 0 147 -124v-96zM180 -299v253h167v-87l-115 -166h-52z" />
    <glyph glyph-name="uni0123" unicode="&#x123;" horiz-adv-x="479" 
d="M272 499h167v-504q0 -124 -147 -124h-239v120h191q25 0 25 22v71q-19 -54 -88 -54h-18q-133 0 -133 124v221q0 124 133 124h18q77 0 91 -64v64zM225 155h17q27 0 27 30v159q0 30 -27 30h-17q-25 0 -25 -22v-175q0 -22 25 -22zM335 784v-253h-167v87l115 166h52z" />
    <glyph glyph-name="Imacron" unicode="&#x12a;" horiz-adv-x="255" 
d="M-66 675v106h389v-106h-389zM40 642h175v-642h-175v642z" />
    <glyph glyph-name="imacron" unicode="&#x12b;" 
d="M-70 555v106h389v-106h-389zM210 0h-170v499h170v-499z" />
    <glyph glyph-name="Iogonek" unicode="&#x12e;" horiz-adv-x="255" 
d="M142 -177h91v-97h-115q-64 0 -89.5 26.5t-25.5 78.5v48q0 51 25.5 77.5t89.5 26.5h6v17h-84v642h175v-756h-73q-21 0 -21 -18v-27q0 -18 21 -18z" />
    <glyph glyph-name="iogonek" unicode="&#x12f;" 
d="M137 -177h91v-97h-115q-64 0 -89.5 26.5t-25.5 78.5v48q0 51 25.5 77.5t89.5 26.5h6v17h-79v499h170v-613h-73q-21 0 -21 -18v-27q0 -18 21 -18zM213 669v-120h-176v120h176z" />
    <glyph glyph-name="Idotaccent" unicode="&#x130;" horiz-adv-x="255" 
d="M47 675v130h162v-130h-162zM40 642h175v-642h-175v642z" />
    <glyph glyph-name="dotlessi" unicode="&#x131;" 
d="M210 0h-170v499h170v-499z" />
    <glyph glyph-name="uni0136" unicode="&#x136;" horiz-adv-x="530" 
d="M173 -299v253h167v-87l-115 -166h-52zM215 642v-642h-175v642h175zM524 0h-188l-120 328l119 314h188l-125 -314z" />
    <glyph glyph-name="uni0137" unicode="&#x137;" horiz-adv-x="475" 
d="M210 0h-170v669h170v-397l94 227h176l-107 -246l107 -253h-177l-93 233v-233zM164 -299v253h167v-87l-115 -166h-52z" />
    <glyph glyph-name="Lacute" unicode="&#x139;" horiz-adv-x="414" 
d="M215 125h199v-125h-374v642h175v-517zM332 825l-133 -150h-134l97 150h170z" />
    <glyph glyph-name="lacute" unicode="&#x13a;" 
d="M210 0h-170v669h170v-669zM56 702l97 150h170l-133 -150h-134z" />
    <glyph glyph-name="uni013B" unicode="&#x13b;" horiz-adv-x="414" 
d="M215 125h199v-125h-374v642h175v-517zM142 -299v253h167v-87l-115 -166h-52z" />
    <glyph glyph-name="uni013C" unicode="&#x13c;" 
d="M41 -46h167v-87l-115 -166h-52v253zM210 0h-170v669h170v-669z" />
    <glyph glyph-name="Lcaron" unicode="&#x13d;" horiz-adv-x="414" 
d="M215 125h199v-125h-374v642h175v-517zM204 675h-154l-133 150h157l53 -69l53 69h157z" />
    <glyph glyph-name="lcaron" unicode="&#x13e;" horiz-adv-x="300" 
d="M210 0h-170v669h170v-669zM250 669h116v-77l-76 -136h-40v213z" />
    <glyph glyph-name="Lslash" unicode="&#x141;" horiz-adv-x="434" 
d="M225 125h199v-125h-374v237l-89 -43v115l89 43v290h175v-206l110 53v-115l-110 -53v-196z" />
    <glyph glyph-name="lslash" unicode="&#x142;" horiz-adv-x="260" 
d="M215 0h-170v282l-100 -48v115l100 48v272h170v-190l104 50v-115l-104 -50v-364z" />
    <glyph glyph-name="Nacute" unicode="&#x143;" horiz-adv-x="533" 
d="M333 642h160v-642h-150l-143 337v-337h-160v642h150l143 -343v343zM188 675l97 150h170l-133 -150h-134z" />
    <glyph glyph-name="nacute" unicode="&#x144;" horiz-adv-x="484" 
d="M298 499h18q133 0 133 -124v-375h-170v352q0 22 -25 22h-17q-27 0 -27 -30v-344h-170v499h167v-64q14 64 91 64zM423 682l-133 -150h-134l97 150h170z" />
    <glyph glyph-name="uni0145" unicode="&#x145;" horiz-adv-x="533" 
d="M175 -46h167v-87l-115 -166h-52v253zM333 642h160v-642h-150l-143 337v-337h-160v642h150l143 -343v343z" />
    <glyph glyph-name="uni0146" unicode="&#x146;" horiz-adv-x="484" 
d="M298 499h18q133 0 133 -124v-375h-170v352q0 22 -25 22h-17q-27 0 -27 -30v-344h-170v499h167v-64q14 64 91 64zM162 -299v253h167v-87l-115 -166h-52z" />
    <glyph glyph-name="Ncaron" unicode="&#x147;" horiz-adv-x="533" 
d="M333 642h160v-642h-150l-143 337v-337h-160v642h150l143 -343v343zM187 674l-133 150h157l53 -69l53 69h157l-133 -150h-154z" />
    <glyph glyph-name="ncaron" unicode="&#x148;" horiz-adv-x="484" 
d="M298 499h18q133 0 133 -124v-375h-170v352q0 22 -25 22h-17q-27 0 -27 -30v-344h-170v499h167v-64q14 64 91 64zM309 532h-154l-133 150h157l53 -69l53 69h157z" />
    <glyph glyph-name="Omacron" unicode="&#x14c;" horiz-adv-x="516" 
d="M184 642h148q147 0 147 -124v-394q0 -124 -147 -124h-148q-147 0 -147 124v394q0 124 147 124zM304 147v348q0 22 -25 22h-42q-25 0 -25 -22v-348q0 -22 25 -22h42q25 0 25 22zM452 781v-106h-389v106h389z" />
    <glyph glyph-name="omacron" unicode="&#x14d;" horiz-adv-x="481" 
d="M177 499h127q76 0 109 -32t33 -92v-251q0 -60 -33 -92t-109 -32h-127q-76 0 -109 32t-33 92v251q0 60 33 92t109 32zM279 140v219q0 22 -25 22h-27q-25 0 -25 -22v-219q0 -22 25 -22h27q25 0 25 22zM427 661v-106h-389v106h389z" />
    <glyph glyph-name="Ohungarumlaut" unicode="&#x150;" horiz-adv-x="500" 
d="M184 642h148q147 0 147 -124v-394q0 -124 -147 -124h-148q-147 0 -147 124v394q0 124 147 124zM304 147v348q0 22 -25 22h-42q-25 0 -25 -22v-348q0 -22 25 -22h42q25 0 25 22zM353 824l-133 -150h-111l97 150h147zM410 674h-111l97 150h147z" />
    <glyph glyph-name="ohungarumlaut" unicode="&#x151;" horiz-adv-x="481" 
d="M177 499h127q76 0 109 -32t33 -92v-251q0 -60 -33 -92t-109 -32h-127q-76 0 -109 32t-33 92v251q0 60 33 92t109 32zM279 140v219q0 22 -25 22h-27q-25 0 -25 -22v-219q0 -22 25 -22h27q25 0 25 22zM327 682l-133 -150h-111l97 150h147zM384 532h-111l97 150h147z" />
    <glyph glyph-name="OE" unicode="&#x152;" horiz-adv-x="740" 
d="M487 115h219v-115h-344v20q-28 -20 -72 -20h-78q-147 0 -147 124v394q0 124 147 124h78q44 0 72 -20v20h335v-115h-210v-146h181v-115h-181v-151zM332 137v368q0 22 -25 22h-42q-25 0 -25 -22v-368q0 -22 25 -22h42q25 0 25 22z" />
    <glyph glyph-name="oe" unicode="&#x153;" horiz-adv-x="833" 
d="M481 499h62q147 0 147 -124v-174h-251v-59q0 -22 25 -22h36q25 0 25 22v25h165v-43q0 -124 -147 -124h-63q-97 0 -131 56q-14 -26 -45.5 -41t-68.5 -15h-67q-133 0 -133 124v251q0 124 133 124h68q37 0 68.5 -15t45.5 -41q34 56 131 56zM274 155v189q0 30 -27 30h-17
q-25 0 -25 -22v-205q0 -22 25 -22h17q27 0 27 30zM439 300h86v57q0 22 -25 22h-36q-25 0 -25 -22v-57z" />
    <glyph glyph-name="Racute" unicode="&#x154;" horiz-adv-x="514" 
d="M215 228v-228h-175v642h297q147 0 147 -124v-166q0 -95 -86 -117l118 -235h-188l-102 228h-11zM284 517h-69v-170h69q25 0 25 22v126q0 22 -25 22zM443 824l-133 -150h-134l97 150h170z" />
    <glyph glyph-name="racute" unicode="&#x155;" horiz-adv-x="335" 
d="M207 499v-77q8 38 36 60t72 22h15v-148h-57q-63 0 -63 -68v-288h-170v499h167zM383 682l-133 -150h-134l97 150h170z" />
    <glyph glyph-name="uni0156" unicode="&#x156;" horiz-adv-x="514" 
d="M164 -299v253h167v-87l-115 -166h-52zM215 228v-228h-175v642h297q147 0 147 -124v-166q0 -95 -86 -117l118 -235h-188l-102 228h-11zM284 517h-69v-170h69q25 0 25 22v126q0 22 -25 22z" />
    <glyph glyph-name="uni0157" unicode="&#x157;" horiz-adv-x="335" 
d="M315 504h15v-148h-57q-63 0 -63 -68v-288h-170v499h167v-77q8 38 36 60t72 22zM41 -299v253h167v-87l-115 -166h-52z" />
    <glyph glyph-name="Rcaron" unicode="&#x158;" horiz-adv-x="514" 
d="M215 228v-228h-175v642h297q147 0 147 -124v-166q0 -95 -86 -117l118 -235h-188l-102 228h-11zM284 517h-69v-170h69q25 0 25 22v126q0 22 -25 22zM331 674h-154l-133 150h157l53 -69l53 69h157z" />
    <glyph glyph-name="rcaron" unicode="&#x159;" horiz-adv-x="335" 
d="M207 499v-77q8 38 36 60t72 22h15v-148h-57q-63 0 -63 -68v-288h-170v499h167zM261 532h-154l-133 150h157l53 -69l53 69h157z" />
    <glyph glyph-name="Sacute" unicode="&#x15a;" horiz-adv-x="491" 
d="M286 147v91q0 22 -25 22h-96q-74 0 -104.5 32.5t-30.5 93.5v132q0 124 146 124h137q146 0 146 -124v-77h-175v54q0 22 -25 22h-29q-25 0 -25 -22v-95q0 -22 25 -22h94q74 0 105.5 -31t31.5 -91v-132q0 -124 -146 -124h-136q-147 0 -147 124v77h175v-54q0 -22 25 -22h29
q25 0 25 22zM193 675l97 150h170l-133 -150h-134z" />
    <glyph glyph-name="sacute" unicode="&#x15b;" horiz-adv-x="445" 
d="M255 132v40q0 22 -25 22h-61q-144 0 -144 123v58q0 124 147 124h93q147 0 147 -124v-42h-162v34q0 22 -25 22h-10q-25 0 -25 -22v-44q0 -22 25 -22h61q77 0 110.5 -31.5t33.5 -90.5v-55q0 -124 -147 -124h-98q-147 0 -147 124v41h165v-33q0 -22 25 -22h12q25 0 25 22z
M162 532l97 150h170l-133 -150h-134z" />
    <glyph glyph-name="uni015E" unicode="&#x15e;" horiz-adv-x="491" 
d="M156 -46h167v-87l-115 -166h-52v253zM286 147v91q0 22 -25 22h-96q-74 0 -104.5 32.5t-30.5 93.5v132q0 124 146 124h137q146 0 146 -124v-77h-175v54q0 22 -25 22h-29q-25 0 -25 -22v-95q0 -22 25 -22h94q74 0 105.5 -31t31.5 -91v-132q0 -124 -146 -124h-136
q-147 0 -147 124v77h175v-54q0 -22 25 -22h29q25 0 25 22z" />
    <glyph glyph-name="uni015F" unicode="&#x15f;" horiz-adv-x="445" 
d="M138 -46h167v-87l-115 -166h-52v253zM255 132v40q0 22 -25 22h-61q-144 0 -144 123v58q0 124 147 124h93q147 0 147 -124v-42h-162v34q0 22 -25 22h-10q-25 0 -25 -22v-44q0 -22 25 -22h61q77 0 110.5 -31.5t33.5 -90.5v-55q0 -124 -147 -124h-98q-147 0 -147 124v41h165
v-33q0 -22 25 -22h12q25 0 25 22z" />
    <glyph glyph-name="Scaron" unicode="&#x160;" horiz-adv-x="491" 
d="M286 147v91q0 22 -25 22h-96q-74 0 -104.5 32.5t-30.5 93.5v132q0 124 146 124h137q146 0 146 -124v-77h-175v54q0 22 -25 22h-29q-25 0 -25 -22v-95q0 -22 25 -22h94q74 0 105.5 -31t31.5 -91v-132q0 -124 -146 -124h-136q-147 0 -147 124v77h175v-54q0 -22 25 -22h29
q25 0 25 22zM168 675l-133 150h157l53 -69l53 69h157l-133 -150h-154z" />
    <glyph glyph-name="scaron" unicode="&#x161;" horiz-adv-x="445" 
d="M255 132v40q0 22 -25 22h-61q-144 0 -144 123v58q0 124 147 124h93q147 0 147 -124v-42h-162v34q0 22 -25 22h-10q-25 0 -25 -22v-44q0 -22 25 -22h61q77 0 110.5 -31.5t33.5 -90.5v-55q0 -124 -147 -124h-98q-147 0 -147 124v41h165v-33q0 -22 25 -22h12q25 0 25 22z
M145 532l-133 150h157l53 -69l53 69h157l-133 -150h-154z" />
    <glyph glyph-name="uni0162" unicode="&#x162;" horiz-adv-x="432" 
d="M427 642v-125h-124v-517h-175v517h-123v125h422zM133 -299v253h167v-87l-115 -166h-52z" />
    <glyph glyph-name="uni0163" unicode="&#x163;" horiz-adv-x="432" 
d="M427 642v-125h-124v-517h-175v517h-123v125h422zM132 -299v253h167v-87l-115 -166h-52z" />
    <glyph glyph-name="Tcaron" unicode="&#x164;" horiz-adv-x="432" 
d="M427 642v-125h-124v-517h-175v517h-123v125h422zM290 675h-154l-133 150h157l53 -69l53 69h157z" />
    <glyph glyph-name="tcaron" unicode="&#x165;" horiz-adv-x="303" 
d="M273 731h116v-77l-76 -117h-40v194zM230 597v-98h63v-125h-63v-227q0 -22 25 -22h37v-125h-85q-147 0 -147 124v250h-55v125h55v98h170z" />
    <glyph glyph-name="Umacron" unicode="&#x16a;" horiz-adv-x="522" 
d="M307 642h175v-518q0 -124 -147 -124h-148q-147 0 -147 124v518h175v-495q0 -22 25 -22h42q25 0 25 22v495zM456 781v-106h-389v106h389z" />
    <glyph glyph-name="umacron" unicode="&#x16b;" horiz-adv-x="484" 
d="M274 499h170v-499h-167v64q-14 -64 -91 -64h-18q-133 0 -133 124v375h170v-352q0 -22 25 -22h17q27 0 27 30v344zM433 661v-106h-389v106h389z" />
    <glyph glyph-name="Uring" unicode="&#x16e;" horiz-adv-x="522" 
d="M307 642h175v-518q0 -124 -147 -124h-148q-147 0 -147 124v518h175v-495q0 -22 25 -22h42q25 0 25 22v495zM304 674h-86q-102 0 -102 89v16q0 90 102 90h86q102 0 102 -90v-16q0 -89 -102 -89zM222 778v-14q0 -19 20 -19h38q20 0 20 19v14q0 19 -20 19h-38q-20 0 -20 -19
z" />
    <glyph glyph-name="uring" unicode="&#x16f;" horiz-adv-x="484" 
d="M274 499h170v-499h-167v64q-14 -64 -91 -64h-18q-133 0 -133 124v375h170v-352q0 -22 25 -22h17q27 0 27 30v344zM292 527h-86q-102 0 -102 89v16q0 90 102 90h86q102 0 102 -90v-16q0 -89 -102 -89zM210 631v-14q0 -19 20 -19h38q20 0 20 19v14q0 19 -20 19h-38
q-20 0 -20 -19z" />
    <glyph glyph-name="Uhungarumlaut" unicode="&#x170;" horiz-adv-x="500" 
d="M307 147v495h175v-518q0 -124 -147 -124h-148q-147 0 -147 124v518h175v-495q0 -22 25 -22h42q25 0 25 22zM345 825l-133 -150h-111l97 150h147zM402 675h-111l97 150h147z" />
    <glyph glyph-name="uhungarumlaut" unicode="&#x171;" horiz-adv-x="484" 
d="M274 499h170v-499h-167v64q-14 -64 -91 -64h-18q-133 0 -133 124v375h170v-352q0 -22 25 -22h17q27 0 27 30v344zM334 682l-133 -150h-111l97 150h147zM391 532h-111l97 150h147z" />
    <glyph glyph-name="Uogonek" unicode="&#x172;" horiz-adv-x="522" 
d="M307 642h175v-518q0 -124 -147 -124h-18v-114h-73q-21 0 -21 -18v-27q0 -18 21 -18h91v-97h-115q-64 0 -89.5 26.5t-25.5 78.5v48q0 51 25.5 77.5t89.5 26.5h6v17h-39q-147 0 -147 124v518h175v-495q0 -22 25 -22h42q25 0 25 22v495z" />
    <glyph glyph-name="uogonek" unicode="&#x173;" horiz-adv-x="484" 
d="M371 -177h91v-97h-115q-64 0 -89.5 26.5t-25.5 78.5v48q0 51 25.5 77.5t89.5 26.5h6v17h-76v64q-14 -64 -91 -64h-18q-133 0 -133 124v375h170v-352q0 -22 25 -22h17q27 0 27 30v344h170v-613h-73q-21 0 -21 -18v-27q0 -18 21 -18z" />
    <glyph glyph-name="Ydieresis" unicode="&#x178;" horiz-adv-x="500" 
d="M352 0h-175v208l-177 434h179l84 -271l78 271h178l-167 -432v-210zM206 823v-130h-152v130h152zM446 823v-130h-152v130h152z" />
    <glyph glyph-name="Zacute" unicode="&#x179;" horiz-adv-x="464" 
d="M444 642v-125l-241 -392h234v-125h-417v125l241 392h-228v125h411zM431 825l-133 -150h-134l97 150h170z" />
    <glyph glyph-name="zacute" unicode="&#x17a;" horiz-adv-x="391" 
d="M381 119v-119h-371v119l179 261h-166v119h348v-119l-182 -261h192zM393 682l-133 -150h-134l97 150h170z" />
    <glyph glyph-name="Zdotaccent" unicode="&#x17b;" horiz-adv-x="464" 
d="M444 642v-125l-241 -392h234v-125h-417v125l241 392h-228v125h411zM325 805v-130h-162v130h162z" />
    <glyph glyph-name="zdotaccent" unicode="&#x17c;" horiz-adv-x="391" 
d="M381 119v-119h-371v119l179 261h-166v119h348v-119l-182 -261h192zM282 672v-130h-162v130h162z" />
    <glyph glyph-name="Zcaron" unicode="&#x17d;" horiz-adv-x="464" 
d="M33 517v125h411v-125l-241 -392h234v-125h-417v125l241 392h-228zM326 675h-154l-133 150h157l53 -69l53 69h157z" />
    <glyph glyph-name="zcaron" unicode="&#x17e;" horiz-adv-x="391" 
d="M381 119v-119h-371v119l179 261h-166v119h348v-119l-182 -261h192zM277 532h-154l-133 150h157l53 -69l53 69h157z" />
    <glyph glyph-name="florin" unicode="&#x192;" horiz-adv-x="449" 
d="M414 544h-53q-22 0 -25 -22l-3 -23h80v-125h-99l-58 -397q-9 -62 -40.5 -93t-106.5 -31h-101v125h53q22 0 25 22l55 374h-66v125h84l7 46q9 62 40.5 93t106.5 31h101v-125z" />
    <glyph glyph-name="uni0218" unicode="&#x218;" horiz-adv-x="491" 
d="M158 -46h167v-87l-115 -166h-52v253zM286 147v91q0 22 -25 22h-96q-74 0 -104.5 32.5t-30.5 93.5v132q0 124 146 124h137q146 0 146 -124v-77h-175v54q0 22 -25 22h-29q-25 0 -25 -22v-95q0 -22 25 -22h94q74 0 105.5 -31t31.5 -91v-132q0 -124 -146 -124h-136
q-147 0 -147 124v77h175v-54q0 -22 25 -22h29q25 0 25 22z" />
    <glyph glyph-name="uni0219" unicode="&#x219;" horiz-adv-x="445" 
d="M128 -46h167v-87l-115 -166h-52v253zM255 132v40q0 22 -25 22h-61q-144 0 -144 123v58q0 124 147 124h93q147 0 147 -124v-42h-162v34q0 22 -25 22h-10q-25 0 -25 -22v-44q0 -22 25 -22h61q77 0 110.5 -31.5t33.5 -90.5v-55q0 -124 -147 -124h-98q-147 0 -147 124v41h165
v-33q0 -22 25 -22h12q25 0 25 22z" />
    <glyph glyph-name="uni021A" unicode="&#x21a;" horiz-adv-x="432" 
d="M427 642v-125h-124v-517h-175v517h-123v125h422zM131 -299v253h167v-87l-115 -166h-52z" />
    <glyph glyph-name="uni021B" unicode="&#x21b;" horiz-adv-x="303" 
d="M293 374h-63v-227q0 -22 25 -22h37v-125h-85q-147 0 -147 124v250h-55v125h55v98h170v-98h63v-125zM82 -299v253h167v-87l-115 -166h-52z" />
    <glyph glyph-name="circumflex" unicode="&#x2c6;" horiz-adv-x="500" 
d="M40 532l133 150h154l133 -150h-157l-53 69l-53 -69h-157z" />
    <glyph glyph-name="caron" unicode="&#x2c7;" horiz-adv-x="500" 
d="M173 532l-133 150h157l53 -69l53 69h157l-133 -150h-154z" />
    <glyph glyph-name="uni02C9" unicode="&#x2c9;" horiz-adv-x="500" 
d="M55 554v107h389v-107h-389z" />
    <glyph glyph-name="breve" unicode="&#x2d8;" horiz-adv-x="500" 
d="M297 682h150v-26q0 -124 -147 -124h-100q-147 0 -147 124v26h150v-33q0 -22 25 -22h44q25 0 25 22v33z" />
    <glyph glyph-name="dotaccent" unicode="&#x2d9;" horiz-adv-x="500" 
d="M169 542v130h162v-130h-162z" />
    <glyph glyph-name="ring" unicode="&#x2da;" horiz-adv-x="500" 
d="M289 600v14q0 19 -20 19h-38q-20 0 -20 -19v-14q0 -19 20 -19h38q20 0 20 19zM395 615v-16q0 -89 -102 -89h-86q-102 0 -102 89v16q0 90 102 90h86q102 0 102 -90z" />
    <glyph glyph-name="ogonek" unicode="&#x2db;" horiz-adv-x="500" 
d="M284 -177h91v-97h-115q-64 0 -89.5 26.5t-25.5 78.5v48q0 51 25.5 77.5t89.5 26.5h6v32h91v-129h-73q-21 0 -21 -18v-27q0 -18 21 -18z" />
    <glyph glyph-name="tilde" unicode="&#x2dc;" horiz-adv-x="500" 
d="M328 532q-34 0 -75 26t-47 26q-18 0 -18 -21v-31h-135v55q0 47 22.5 71t76.5 24h19q34 0 75 -26t47 -26q18 0 18 21v31h135v-60q0 -46 -23 -68t-78 -22h-17z" />
    <glyph glyph-name="hungarumlaut" unicode="&#x2dd;" horiz-adv-x="500" 
d="M33 532l97 150h147l-133 -150h-111zM223 532l97 150h147l-133 -150h-111z" />
    <glyph glyph-name="pi" unicode="&#x3c0;" horiz-adv-x="570" 
d="M560 499v-115h-71v-384h-175v384h-76v-260q0 -124 -147 -124h-81v125h33q25 0 25 22v352h492z" />
    <glyph glyph-name="uni0901" unicode="&#x901;" horiz-adv-x="0" 
d="M-183 958h122v-129h-122v129zM-372 887h140v-72q0 -15 6.5 -20.5t21.5 -5.5h164q15 0 21.5 5.5t6.5 20.5v72h140v-93q0 -51 -34.5 -75t-117.5 -24h-196q-83 0 -117.5 24t-34.5 75v93z" />
    <glyph glyph-name="uni0902" unicode="&#x902;" horiz-adv-x="0" 
d="M-181 857h122v-129h-122v129z" />
    <glyph glyph-name="uni0903" unicode="&#x903;" horiz-adv-x="262" 
d="M70 485h122v-129h-122v129zM70 187h122v-129h-122v129z" />
    <glyph glyph-name="uni0905" unicode="&#x905;" horiz-adv-x="730" 
d="M750 642v-113h-60v-529h-170v255h-67v-60q0 -58 -31 -87.5t-109 -29.5h-122q-78 0 -109 29.5t-31 87.5v82h170v-66q0 -20 23 -20h16q23 0 23 20v71q0 24 -23 24h-33v113h33q23 0 23 24v71q0 20 -23 20h-16q-23 0 -23 -20v-56h-170v72q0 58 31 87.5t109 29.5h122
q78 0 109 -29.5t31 -87.5v-109q0 -42 -33 -53h100v274h230z" />
    <glyph glyph-name="uni0906" unicode="&#x906;" horiz-adv-x="980" 
d="M1000 642v-113h-60v-529h-170v529h-80v-529h-170v255h-67v-60q0 -58 -31 -87.5t-109 -29.5h-122q-78 0 -109 29.5t-31 87.5v82h170v-66q0 -20 23 -20h16q23 0 23 20v71q0 24 -23 24h-33v113h33q23 0 23 24v71q0 20 -23 20h-16q-23 0 -23 -20v-56h-170v72q0 58 31 87.5
t109 29.5h122q78 0 109 -29.5t31 -87.5v-109q0 -42 -33 -53h100v274h480z" />
    <glyph glyph-name="uni0907" unicode="&#x907;" horiz-adv-x="462" 
d="M414 369h-191q-23 0 -23 -20v-24q0 -20 23 -20h69q79 0 109.5 -25t30.5 -82v-91q0 -57 -30.5 -82t-109.5 -25h-92v-62h-170v227h170v-62h39q23 0 23 20v59q0 20 -23 20h-69q-79 0 -109.5 25t-30.5 82v56q0 57 30.5 82t109.5 25h74v57h-264v113h502v-113h-68v-160z" />
    <glyph glyph-name="uni0908" unicode="&#x908;" horiz-adv-x="462" 
d="M490 709h-53q-23 0 -23 -20v-47h68v-113h-68v-160h-191q-23 0 -23 -20v-24q0 -20 23 -20h69q79 0 109.5 -25t30.5 -82v-91q0 -57 -30.5 -82t-109.5 -25h-92v-62h-170v227h170v-62h39q23 0 23 20v59q0 20 -23 20h-69q-79 0 -109.5 25t-30.5 82v56q0 57 30.5 82t109.5 25
h74v57h-264v113h264v63q0 57 30.5 82t109.5 25h106v-103z" />
    <glyph glyph-name="uni0909" unicode="&#x909;" horiz-adv-x="471" 
d="M482 642v-113h-66q6 -11 6 -25v-99q0 -50 -47 -56v-5q47 -6 47 -56v-181q0 -57 -30.5 -82t-109.5 -25h-122q-79 0 -109.5 25t-30.5 82v116h170v-100q0 -20 17 -20h22q23 0 23 20v143q0 24 -23 24h-44v113h44q23 0 23 24v68q0 19 -7 26.5t-27 7.5h-238v113h502z" />
    <glyph glyph-name="uni090A" unicode="&#x90a;" horiz-adv-x="677" 
d="M697 642v-113h-281q6 -11 6 -25v-99q0 -50 -47 -56v-5h151q66 0 98.5 -29.5t32.5 -97.5v-110q0 -57 -30.5 -82t-109.5 -25h-64v113h11q23 0 23 20v74q0 24 -23 24h-42v-124q0 -57 -30.5 -82t-109.5 -25h-122q-79 0 -109.5 25t-30.5 82v116h170v-100q0 -20 17 -20h22
q23 0 23 20v143q0 24 -23 24h-44v113h44q23 0 23 24v68q0 19 -7 26.5t-27 7.5h-238v113h717z" />
    <glyph glyph-name="uni090B" unicode="&#x90b;" horiz-adv-x="1016" 
d="M514 529v-248h66q-6 11 -6 25v39q0 70 35.5 98.5t125.5 28.5h80q90 0 125.5 -28.5t35.5 -98.5v-51q0 -50 -47 -56v-5q47 -6 47 -56v-70q0 -57 -30.5 -82t-109.5 -25h-122q-79 0 -109.5 25t-30.5 82v34h170v-18q0 -20 17 -20h22q23 0 23 20v38q0 20 -23 20h-269v-181h-170
v181h-20l-102 -181h-195l130 231l-52 76q-19 28 -34 37.5t-41 9.5h-15v113h104q48 0 76 -15.5t53 -51.5l81 -119h15v248h-364v113h1056v-113h-522zM744 351v-50q0 -20 23 -20h16q23 0 23 20v50q0 20 -23 20h-16q-23 0 -23 -20z" />
    <glyph glyph-name="uni090C" unicode="&#x90c;" horiz-adv-x="740" 
d="M700 46h-127q-23 0 -23 -20v-33q0 -20 23 -20h187v-113h-240q-79 0 -109.5 25t-30.5 82v75q0 57 30.5 82t109.5 25h10v210h-52q-23 0 -23 -24v-127h-170v127q0 24 -23 24h-29q-23 0 -23 -24v-202q0 -20 23 -20h11v-113h-64q-79 0 -109.5 25t-30.5 82v238q0 68 32.5 97.5
t98.5 29.5h141q50 0 56 -47h5q6 47 56 47h101v57h-550v113h780v-113h-60v-483z" />
    <glyph glyph-name="uni090D" unicode="&#x90d;" horiz-adv-x="512" 
d="M532 642v-113h-60v-154q0 -57 -30.5 -82t-109.5 -25h-84v113h31q23 0 23 20v128h-92v-406q0 -20 23 -20h52q17 0 17 20v100h170v-116q0 -57 -30.5 -82t-109.5 -25h-152q-79 0 -109.5 25t-30.5 82v422h-60v113h552zM362 675h-196q-83 0 -117.5 24t-34.5 75v93h140v-72
q0 -15 6.5 -20.5t21.5 -5.5h164q15 0 21.5 5.5t6.5 20.5v72h140v-93q0 -51 -34.5 -75t-117.5 -24z" />
    <glyph glyph-name="uni090E" unicode="&#x90e;" horiz-adv-x="512" 
d="M532 642v-113h-60v-154q0 -57 -30.5 -82t-109.5 -25h-84v113h31q23 0 23 20v128h-92v-406q0 -20 23 -20h52q17 0 17 20v100h170v-116q0 -57 -30.5 -82t-109.5 -25h-152q-79 0 -109.5 25t-30.5 82v422h-60v113h322v17q0 23 -7 29.5t-29 6.5h-117q-92 0 -92 92v64h170v-7
q0 -23 7 -29.5t30 -6.5h116q92 0 92 -92v-74h60z" />
    <glyph glyph-name="uni090F" unicode="&#x90f;" horiz-adv-x="512" 
d="M532 642v-113h-60v-154q0 -57 -30.5 -82t-109.5 -25h-84v113h31q23 0 23 20v128h-92v-406q0 -20 23 -20h52q17 0 17 20v100h170v-116q0 -57 -30.5 -82t-109.5 -25h-152q-79 0 -109.5 25t-30.5 82v422h-60v113h552z" />
    <glyph glyph-name="uni0910" unicode="&#x910;" horiz-adv-x="512" 
d="M532 642v-113h-60v-154q0 -57 -30.5 -82t-109.5 -25h-84v113h31q23 0 23 20v128h-92v-406q0 -20 23 -20h52q17 0 17 20v100h170v-116q0 -57 -30.5 -82t-109.5 -25h-152q-79 0 -109.5 25t-30.5 82v422h-60v113h324q-58 46 -120 126l-58 75h203l141 -201h62z" />
    <glyph glyph-name="uni0911" unicode="&#x911;" horiz-adv-x="980" 
d="M965 887h140v-93q0 -51 -34.5 -75t-117.5 -24h-196q-83 0 -117.5 24t-34.5 75v93h140v-72q0 -15 6.5 -20.5t21.5 -5.5h164q15 0 21.5 5.5t6.5 20.5v72zM1000 642v-113h-60v-529h-170v529h-80v-529h-170v255h-67v-60q0 -58 -31 -87.5t-109 -29.5h-122q-78 0 -109 29.5
t-31 87.5v82h170v-66q0 -20 23 -20h16q23 0 23 20v71q0 24 -23 24h-33v113h33q23 0 23 24v71q0 20 -23 20h-16q-23 0 -23 -20v-56h-170v72q0 58 31 87.5t109 29.5h122q78 0 109 -29.5t31 -87.5v-109q0 -42 -33 -53h100v274h480z" />
    <glyph glyph-name="uni0912" unicode="&#x912;" horiz-adv-x="980" 
d="M1000 642v-113h-60v-529h-170v529h-80v-529h-170v255h-67v-60q0 -58 -31 -87.5t-109 -29.5h-122q-78 0 -109 29.5t-31 87.5v82h170v-66q0 -20 23 -20h16q23 0 23 20v71q0 24 -23 24h-33v113h33q23 0 23 24v71q0 20 -23 20h-16q-23 0 -23 -20v-56h-170v72q0 58 31 87.5
t109 29.5h122q78 0 109 -29.5t31 -87.5v-109q0 -42 -33 -53h100v274h250v17q0 23 -7 29.5t-29 6.5h-117q-92 0 -92 92v64h170v-7q0 -23 7 -29.5t30 -6.5h116q92 0 92 -92v-74h60z" />
    <glyph glyph-name="uni0913" unicode="&#x913;" horiz-adv-x="980" 
d="M1000 642v-113h-60v-529h-170v529h-80v-529h-170v255h-67v-60q0 -58 -31 -87.5t-109 -29.5h-122q-78 0 -109 29.5t-31 87.5v82h170v-66q0 -20 23 -20h16q23 0 23 20v71q0 24 -23 24h-33v113h33q23 0 23 24v71q0 20 -23 20h-16q-23 0 -23 -20v-56h-170v72q0 58 31 87.5
t109 29.5h122q78 0 109 -29.5t31 -87.5v-109q0 -42 -33 -53h100v274h249q-58 46 -120 126l-58 75h203l141 -201h65z" />
    <glyph glyph-name="uni0914" unicode="&#x914;" horiz-adv-x="980" 
d="M1000 642v-113h-60v-529h-170v529h-80v-529h-170v255h-67v-60q0 -58 -31 -87.5t-109 -29.5h-122q-78 0 -109 29.5t-31 87.5v82h170v-66q0 -20 23 -20h16q23 0 23 20v71q0 24 -23 24h-33v113h33q23 0 23 24v71q0 20 -23 20h-16q-23 0 -23 -20v-56h-170v72q0 58 31 87.5
t109 29.5h122q78 0 109 -29.5t31 -87.5v-109q0 -42 -33 -53h100v274h248q-63 39 -139 103l-117 98h200q106 -138 138 -187h5q-24 42 -84 187h154l14 -201h61z" />
    <glyph glyph-name="uni0915" unicode="&#x915;" horiz-adv-x="700" 
d="M720 529h-285v-73q15 16 53 16h61q66 0 98.5 -29.5t32.5 -97.5v-160q0 -57 -30.5 -82t-109.5 -25h-64v103h11q23 0 23 20v134q0 24 -23 24h-29q-23 0 -23 -24v-335h-170v94q-15 -16 -53 -16h-61q-66 0 -98.5 29.5t-32.5 97.5v160q0 57 30.5 82t109.5 25h64v-103h-11
q-23 0 -23 -20v-134q0 -24 23 -24h29q23 0 23 24v314h-285v113h740v-113z" />
    <glyph glyph-name="uni0916" unicode="&#x916;" horiz-adv-x="931" 
d="M951 642v-113h-60v-529h-170v94q-15 -16 -53 -16h-61q-66 0 -98.5 29.5t-32.5 97.5v160q0 57 30.5 82t109.5 25h64v-103h-11q-23 0 -23 -20v-134q0 -24 23 -24h29q23 0 23 24v314h-294q6 -11 6 -25v-159q0 -63 -32.5 -89t-110.5 -26h-80v-83q0 -19 7.5 -26.5t26.5 -7.5
h248v-113h-272q-95 0 -137.5 26.5t-42.5 88.5v357h170v-129h19q19 0 26.5 7.5t7.5 26.5v118q0 19 -7.5 26.5t-26.5 7.5h-249v113h971z" />
    <glyph glyph-name="uni0917" unicode="&#x917;" horiz-adv-x="726" 
d="M746 642v-113h-60v-529h-170v529h-80v-324q0 -70 -35.5 -98.5t-125.5 -28.5h-86q-90 0 -125.5 28.5t-35.5 98.5v152q0 62 42.5 88.5t137.5 26.5h58v57h-286v113h766zM223 191h18q25 0 25 24v144h-37q-19 0 -25 -5.5t-6 -25.5v-113q0 -24 25 -24z" />
    <glyph glyph-name="uni0918" unicode="&#x918;" horiz-adv-x="532" 
d="M552 642v-113h-60v-529h-170v94q-16 -16 -49 -16h-72q-84 0 -122.5 29t-38.5 98v96q0 50 47 56v5q-47 6 -47 56v86q0 14 6 25h-66v113h572zM322 225v304h-78q-20 0 -27 -7.5t-7 -26.5v-55q0 -24 23 -24h33v-113h-33q-23 0 -23 -24v-64q0 -24 23 -24h55q20 0 27 7.5
t7 26.5z" />
    <glyph glyph-name="uni0919" unicode="&#x919;" horiz-adv-x="558" 
d="M-20 642h598v-113h-171v-160h-180q-23 0 -23 -20v-23q0 -20 23 -20h63q79 0 109.5 -25t30.5 -82v-92q0 -57 -30.5 -82t-109.5 -25h-122q-79 0 -109.5 25t-30.5 82v52h170v-36q0 -20 17 -20h22q23 0 23 20v60q0 20 -23 20h-63q-79 0 -109.5 25t-30.5 82v55q0 57 30.5 82
t109.5 25h63v57h-257v113zM434 284v129h122v-129h-122z" />
    <glyph glyph-name="uni091A" unicode="&#x91a;" horiz-adv-x="499" 
d="M519 642v-113h-60v-529h-170v94q-15 -16 -53 -16h-61q-66 0 -98.5 29.5t-32.5 97.5v100q0 35 17 54h-73v113h272v-113h-23q-23 0 -23 -24v-120q0 -24 23 -24h29q23 0 23 24v314h-311v113h541z" />
    <glyph glyph-name="uni091B" unicode="&#x91b;" horiz-adv-x="701" 
d="M721 529h-162v-59q52 -5 77 -29t25 -76v-238q0 -69 -38.5 -98t-122.5 -29h-305q-84 0 -122.5 29t-38.5 98v131q0 50 47 56v5q-47 6 -47 56v129q0 14 6 25h-60v113h741v-113zM399 529h-161q-20 0 -27 -7.5t-7 -26.5v-98q0 -24 23 -24h33v-113h-33q-23 0 -23 -24v-97
q0 -24 23 -24h241q23 0 23 24v219q0 20 -23 20h-16q-23 0 -23 -20v-40q0 -20 23 -20h11v-93h-41q-60 0 -91.5 24t-31.5 83v53q0 51 24.5 75.5t75.5 29.5v59z" />
    <glyph glyph-name="uni091C" unicode="&#x91c;" horiz-adv-x="728" 
d="M748 642v-113h-60v-529h-170v359h-70v-154q0 -70 -35.5 -98.5t-125.5 -28.5h-86q-90 0 -125.5 28.5t-35.5 98.5v267h170v-257q0 -24 25 -24h18q25 0 25 24v257h240v57h-538v113h768z" />
    <glyph glyph-name="uni091D" unicode="&#x91d;" horiz-adv-x="712" 
d="M732 642v-113h-60v-529h-170v202h-72q2 -14 2 -22v-73q0 -57 -30.5 -82t-109.5 -25h-92v-62h-170v227h170v-62h39q23 0 23 20v59q0 20 -23 20h-69q-79 0 -109.5 25t-30.5 82v56q0 57 30.5 82t109.5 25h74v57h-284v113h772zM503 305v224h-89v-160h-191q-23 0 -23 -20v-24
q0 -20 23 -20h280z" />
    <glyph glyph-name="uni091E" unicode="&#x91e;" horiz-adv-x="716" 
d="M736 642v-113h-60v-529h-170v219h-78v-14q0 -70 -35.5 -98.5t-125.5 -28.5h-86q-90 0 -125.5 28.5t-35.5 98.5v64h170v-54q0 -24 25 -24h18q25 0 25 24v124q0 20 -23 20h-102v113h155q78 0 109 -29.5t31 -87.5v-23h78v197h-526v113h756z" />
    <glyph glyph-name="uni091F" unicode="&#x91f;" horiz-adv-x="488" 
d="M508 642v-113h-60v-170h-213q-25 0 -25 -24v-198q0 -24 25 -24h18q25 0 25 24v102h170v-112q0 -70 -35.5 -98.5t-125.5 -28.5h-86q-90 0 -125.5 28.5t-35.5 98.5v238q0 57 30.5 82t109.5 25h98v57h-298v113h528z" />
    <glyph glyph-name="uni0920" unicode="&#x920;" horiz-adv-x="488" 
d="M508 529h-179v-59q65 -6 92 -35t27 -90v-218q0 -70 -35.5 -98.5t-125.5 -28.5h-86q-90 0 -125.5 28.5t-35.5 98.5v218q0 61 27 90t92 35v59h-179v113h528v-113zM278 137v198q0 24 -25 24h-18q-25 0 -25 -24v-198q0 -24 25 -24h18q25 0 25 24z" />
    <glyph glyph-name="uni0921" unicode="&#x921;" horiz-adv-x="470" 
d="M407 369h-180q-23 0 -23 -20v-23q0 -20 23 -20h63q79 0 109.5 -25t30.5 -82v-92q0 -57 -30.5 -82t-109.5 -25h-122q-79 0 -109.5 25t-30.5 82v52h170v-36q0 -20 17 -20h22q23 0 23 20v60q0 20 -23 20h-63q-79 0 -109.5 25t-30.5 82v55q0 57 30.5 82t109.5 25h63v57h-257
v113h510v-113h-83v-160z" />
    <glyph glyph-name="uni0922" unicode="&#x922;" horiz-adv-x="517" 
d="M448 359h-213q-25 0 -25 -24v-198q0 -24 25 -24h57q25 0 25 24v30q0 24 -25 24h-44v113h78q90 0 125.5 -28.5t35.5 -98.5v-50q0 -70 -35.5 -98.5t-125.5 -28.5h-125q-90 0 -125.5 28.5t-35.5 98.5v238q0 57 30.5 82t109.5 25h98v57h-298v113h557v-113h-89v-170z" />
    <glyph glyph-name="uni0923" unicode="&#x923;" horiz-adv-x="738" 
d="M758 642v-113h-60v-529h-170v529h-80v-324q0 -70 -35.5 -98.5t-125.5 -28.5h-86q-90 0 -125.5 28.5t-35.5 98.5v324h-60v113h778zM278 215v314h-68v-314q0 -24 25 -24h18q25 0 25 24z" />
    <glyph glyph-name="uni0924" unicode="&#x924;" horiz-adv-x="493" 
d="M513 642v-113h-60v-529h-170v359h-50q-23 0 -23 -20v-206q0 -20 23 -20h11v-113h-64q-79 0 -109.5 25t-30.5 82v258q0 57 30.5 82t109.5 25h103v57h-303v113h533z" />
    <glyph glyph-name="uni0925" unicode="&#x925;" horiz-adv-x="651" 
d="M671 642v-113h-60v-529h-170v94q-16 -16 -49 -16h-181q-84 0 -122.5 29t-38.5 98v198h130q23 0 23 20v91q0 20 -23 20h-7q-23 0 -23 -20v-36h-90v63q0 55 31.5 80.5t98.5 25.5h53q67 0 98.5 -25.5t31.5 -80.5v-134q0 -58 -31 -87.5t-109 -29.5h-13v-75q0 -24 23 -24h164
q19 0 26.5 7.5t7.5 26.5v304l-1 113h231z" />
    <glyph glyph-name="uni0926" unicode="&#x926;" horiz-adv-x="474" 
d="M494 642v-113h-60v-170h-213q-25 0 -25 -24v-120q0 -24 23 -24h22q23 0 23 24v76h170v-291h-170v94q-15 -16 -53 -16h-24q-90 0 -125.5 28.5t-35.5 98.5v160q0 57 30.5 82t109.5 25h98v57h-298v113h528z" />
    <glyph glyph-name="uni0927" unicode="&#x927;" horiz-adv-x="606" 
d="M633 642v-113h-60v-529h-170v94q-16 -16 -49 -16h-174q-67 0 -98.5 25.5t-31.5 80.5v104q0 50 47 56v5q-47 6 -47 56v136q0 55 31.5 80.5t98.5 25.5h53q67 0 98.5 -25.5t31.5 -80.5v-63h-90v36q0 20 -23 20h-7q-23 0 -23 -20v-87q0 -24 23 -24h69v-113h-69q-23 0 -23 -24
v-51q0 -24 23 -24h126q19 0 26.5 7.5t7.5 26.5v304l-1 113h231z" />
    <glyph glyph-name="uni0928" unicode="&#x928;" horiz-adv-x="708" 
d="M728 642v-113h-60v-529h-170v359h-60v-154q0 -70 -35.5 -98.5t-125.5 -28.5h-86q-90 0 -125.5 28.5t-35.5 98.5v160q0 57 30.5 82t109.5 25h328v57h-518v113h748zM268 215v144h-45q-23 0 -23 -20v-124q0 -24 25 -24h18q25 0 25 24z" />
    <glyph glyph-name="uni0928093C" unicode="&#x929;" horiz-adv-x="708" 
d="M728 642v-113h-60v-529h-170v359h-60v-154q0 -70 -35.5 -98.5t-125.5 -28.5h-86q-90 0 -125.5 28.5t-35.5 98.5v160q0 57 30.5 82t109.5 25h328v57h-518v113h748zM268 215v144h-45q-23 0 -23 -20v-124q0 -24 25 -24h18q25 0 25 24zM304 -116v129h122v-129h-122z" />
    <glyph glyph-name="uni092A" unicode="&#x92a;" horiz-adv-x="495" 
d="M515 642v-113h-60v-529h-170v94q-15 -16 -53 -16h-61q-66 0 -98.5 29.5t-32.5 97.5v324h-60v113h535zM285 215v314h-75v-314q0 -24 23 -24h29q23 0 23 24z" />
    <glyph glyph-name="uni092B" unicode="&#x92b;" horiz-adv-x="720" 
d="M740 529h-285v-73q15 16 53 16h61q66 0 98.5 -29.5t32.5 -97.5v-160q0 -57 -30.5 -82t-109.5 -25h-64v103h11q23 0 23 20v134q0 24 -23 24h-29q-23 0 -23 -24v-335h-170v94q-15 -16 -53 -16h-61q-66 0 -98.5 29.5t-32.5 97.5v324h-60v113h760v-113zM285 215v314h-75v-314
q0 -24 23 -24h29q23 0 23 24z" />
    <glyph glyph-name="uni092C" unicode="&#x92c;" horiz-adv-x="577" 
d="M597 642v-113h-60v-529h-170v83q-15 -5 -36 -5h-170q-66 0 -98.5 29.5t-32.5 97.5v160q0 57 30.5 82t109.5 25h155v-103h-72l120 -147q-6 14 -6 103v204h-387v113h617zM200 215q0 -24 23 -24h91q-77 93 -114 141v-117z" />
    <glyph glyph-name="uni092D" unicode="&#x92d;" horiz-adv-x="736" 
d="M756 642v-113h-60v-529h-170v327h-78v-122q0 -70 -35.5 -98.5t-125.5 -28.5h-86q-90 0 -125.5 28.5t-35.5 98.5v128q0 57 30.5 82t109.5 25h98v74q0 20 -23 20h-13q-23 0 -23 -20v-26h-170v42q0 58 31 87.5t109 29.5h119q78 0 109 -29.5t31 -87.5v-90h78v202h230z
M278 215v112h-45q-23 0 -23 -20v-92q0 -24 25 -24h18q25 0 25 24z" />
    <glyph glyph-name="uni092E" unicode="&#x92e;" horiz-adv-x="726" 
d="M746 642v-113h-60v-529h-170v319h-78v-114q0 -70 -35.5 -98.5t-125.5 -28.5h-86q-90 0 -125.5 28.5t-35.5 98.5v120q0 57 30.5 82t109.5 25h98v97h-288v113h766zM268 215v104h-63q-23 0 -23 -20v-84q0 -24 25 -24h36q25 0 25 24zM516 432v97h-78v-97h78z" />
    <glyph glyph-name="uni092F" unicode="&#x92f;" horiz-adv-x="628" 
d="M648 642v-113h-60v-529h-170v94q-16 -16 -49 -16h-168q-84 0 -122.5 29t-38.5 98v187h125q23 0 23 20v83q0 19 -7 26.5t-27 7.5h-174v113h668zM418 225v304h-82q14 -17 14 -44v-89q0 -59 -29 -88t-106 -29h-5v-64q0 -24 23 -24h151q20 0 27 7.5t7 26.5z" />
    <glyph glyph-name="uni0930" unicode="&#x930;" horiz-adv-x="473" 
d="M493 642v-113h-66q6 -11 6 -25v-139q0 -62 -42.5 -88.5t-137.5 -26.5h-43v-127q0 -20 23 -20h13q17 0 17 20v81h170v-97q0 -57 -30.5 -82t-109.5 -25h-113q-79 0 -109.5 25t-30.5 82v365h170v-109h19q19 0 26.5 7.5t7.5 26.5v98q0 19 -7.5 26.5t-26.5 7.5h-249v113h513z
" />
    <glyph glyph-name="uni0930093C" unicode="&#x931;" horiz-adv-x="473" 
d="M493 642v-113h-66q6 -11 6 -25v-139q0 -62 -42.5 -88.5t-137.5 -26.5h-43v-127q0 -20 23 -20h13q17 0 17 20v81h170v-97q0 -57 -30.5 -82t-109.5 -25h-113q-79 0 -109.5 25t-30.5 82v365h170v-109h19q19 0 26.5 7.5t7.5 26.5v98q0 19 -7.5 26.5t-26.5 7.5h-249v113h513z
M161 -194v129h122v-129h-122z" />
    <glyph glyph-name="uni0932" unicode="&#x932;" horiz-adv-x="748" 
d="M768 642v-113h-60v-529h-170v359h-47q-23 0 -23 -24v-167h-170v167q0 24 -23 24h-29q-23 0 -23 -24v-202q0 -20 23 -20h50v-113h-103q-79 0 -109.5 25t-30.5 82v238q0 68 32.5 97.5t98.5 29.5h141q50 0 56 -47h5q6 47 56 47h96v57h-558v113h788z" />
    <glyph glyph-name="uni0933" unicode="&#x933;" horiz-adv-x="730" 
d="M750 529h-156v-59q96 -14 96 -125v-140q0 -68 -32.5 -97.5t-98.5 -29.5h-115q-70 0 -76 47h-5q-6 -47 -76 -47h-116q-66 0 -98.5 29.5t-32.5 97.5v140q0 68 32.5 97.5t98.5 29.5h116q70 0 76 -47h5q5 40 56 46v58h-444v113h770v-113zM285 215v120q0 24 -23 24h-29
q-23 0 -23 -24v-120q0 -24 23 -24h29q23 0 23 24zM520 215v120q0 24 -23 24h-29q-23 0 -23 -24v-120q0 -24 23 -24h29q23 0 23 24z" />
    <glyph glyph-name="uni0933093C" unicode="&#x934;" horiz-adv-x="730" 
d="M750 529h-156v-59q96 -14 96 -125v-140q0 -68 -32.5 -97.5t-98.5 -29.5h-115q-70 0 -76 47h-5q-6 -47 -76 -47h-116q-66 0 -98.5 29.5t-32.5 97.5v140q0 68 32.5 97.5t98.5 29.5h116q70 0 76 -47h5q5 40 56 46v58h-444v113h770v-113zM285 215v120q0 24 -23 24h-29
q-23 0 -23 -24v-120q0 -24 23 -24h29q23 0 23 24zM520 215v120q0 24 -23 24h-29q-23 0 -23 -24v-120q0 -24 23 -24h29q23 0 23 24zM74 -116v129h122v-129h-122z" />
    <glyph glyph-name="uni0935" unicode="&#x935;" horiz-adv-x="495" 
d="M515 642v-113h-60v-529h-170v94q-15 -16 -53 -16h-61q-66 0 -98.5 29.5t-32.5 97.5v160q0 57 30.5 82t109.5 25h64v-113h-11q-23 0 -23 -20v-124q0 -24 23 -24h29q23 0 23 24v314h-305v113h535z" />
    <glyph glyph-name="uni0936" unicode="&#x936;" horiz-adv-x="740" 
d="M530 642h230v-113h-60v-529h-170v642zM200 647h113q78 0 109 -29.5t31 -87.5v-182q0 -62 -42.5 -88.5t-137.5 -26.5h-43v-110q0 -20 23 -20h13q17 0 17 20v64h170v-80q0 -57 -30.5 -82t-109.5 -25h-113q-79 0 -109.5 25t-30.5 82v299h170v-60h19q19 0 26.5 7.5t7.5 26.5
v134q0 20 -23 20h-13q-17 0 -17 -20v-49h-170v65q0 58 31 87.5t109 29.5z" />
    <glyph glyph-name="uni0937" unicode="&#x937;" horiz-adv-x="545" 
d="M565 642v-113h-60v-529h-170v94q-15 -16 -53 -16h-111q-66 0 -98.5 29.5t-32.5 97.5v324h-60v113h585zM233 191h79q18 0 22 14l-84 140q-31 52 -49 109q9 -50 9 -121v-118q0 -24 23 -24zM335 427v102h-109l69 -114q31 -52 49 -109q-9 50 -9 121z" />
    <glyph glyph-name="uni0938" unicode="&#x938;" horiz-adv-x="707" 
d="M727 642v-113h-60v-529h-170v250h-287v-127q0 -20 23 -20h13q17 0 17 20v81h170v-97q0 -57 -30.5 -82t-109.5 -25h-113q-79 0 -109.5 25t-30.5 82v365h170v-109h19q19 0 26.5 7.5t7.5 26.5v98q0 19 -7.5 26.5t-26.5 7.5h-249v113h747zM497 363v166h-70q6 -11 6 -25v-116
q0 -14 -6 -25h70z" />
    <glyph glyph-name="uni0939" unicode="&#x939;" horiz-adv-x="488" 
d="M508 642v-113h-60v-170h-215q-23 0 -23 -18v-7q0 -18 23 -18h54q90 0 125.5 -28.5t35.5 -98.5v-29h-170v19q0 24 -25 24h-20q-23 0 -23 -24v-42q0 -24 23 -24h215v-113h-247q-84 0 -122.5 29t-38.5 98v74q0 50 47 56v5q-47 6 -47 56v47q0 57 30.5 82t109.5 25h98v57h-298
v113h528z" />
    <glyph glyph-name="uni093C" unicode="&#x93c;" horiz-adv-x="0" 
d="M-184 -27h122v-129h-122v129z" />
    <glyph glyph-name="uni093D" unicode="&#x93d;" horiz-adv-x="462" 
d="M394 539h-165q-23 0 -23 -20v-100q0 -20 23 -20h63q79 0 109.5 -25t30.5 -82v-185q0 -57 -30.5 -82t-109.5 -25h-122q-79 0 -109.5 25t-30.5 82v52h170v-36q0 -20 17 -20h22q23 0 23 20v153q0 20 -23 20h-63q-79 0 -109.5 25t-30.5 82v132q0 57 30.5 82t109.5 25h218
v-103z" />
    <glyph glyph-name="uni093E" unicode="&#x93e;" 
d="M270 642v-113h-60v-529h-170v529h-60v113h290z" />
    <glyph glyph-name="uni093F" unicode="&#x93f;" 
d="M162 858h404q122 0 122 -112v-70h-170v33q0 23 -7 29.5t-29 6.5h-236q-22 0 -29 -6.5t-7 -29.5v-67h60v-113h-60v-529h-170v529h-60v113h60v104q0 112 122 112z" />
    <glyph glyph-name="uni0940" unicode="&#x940;" 
d="M270 642v-113h-60v-529h-170v529h-60v113h60v67q0 23 -7 29.5t-29 6.5h-38q-22 0 -29 -6.5t-7 -29.5v-33h-170v70q0 112 122 112h206q122 0 122 -112v-104h60z" />
    <glyph glyph-name="uni0941" unicode="&#x941;" horiz-adv-x="0" 
d="M-92 7q66 0 98.5 -29.5t32.5 -97.5v-44q0 -68 -32.5 -97.5t-98.5 -29.5h-139q-79 0 -123 26.5t-80 88.5l-30 51h199l20 -31q14 -22 44 -22h39q20 0 25.5 6t5.5 25v9q0 20 -5.5 25.5t-25.5 5.5h-48v114h118z" />
    <glyph glyph-name="uni0942" unicode="&#x942;" horiz-adv-x="0" 
d="M-63 8q79 0 122 -26.5t81 -88.5l113 -183h-199l-103 163q-13 22 -44 22h-26q-19 0 -25 -5.5t-6 -25.5v-9q0 -19 6 -25t25 -6h48v-114h-118q-66 0 -98.5 29.5t-32.5 97.5v44q0 68 32.5 97.5t98.5 29.5h126z" />
    <glyph glyph-name="uni0943" unicode="&#x943;" horiz-adv-x="0" 
d="M-40 8v-113h-68q-20 0 -25.5 -5.5t-5.5 -25.5v-9q0 -19 5.5 -25t25.5 -6h98v-114h-168q-66 0 -98.5 29.5t-32.5 97.5v44q0 68 32.5 97.5t98.5 29.5h138z" />
    <glyph glyph-name="uni0944" unicode="&#x944;" horiz-adv-x="0" 
d="M-291 -89q0 97 121 97h130v-113h-58q-23 0 -23 -24v-24q0 -24 23 -24h46v-113h-46q-23 0 -23 -24v-24q0 -24 23 -24h109v-113h-141q-84 0 -122.5 29t-38.5 98v56q0 50 47 56v5q-47 6 -47 56v86z" />
    <glyph glyph-name="uni0945" unicode="&#x945;" horiz-adv-x="0" 
d="M-377 887h140v-72q0 -15 6.5 -20.5t21.5 -5.5h164q15 0 21.5 5.5t6.5 20.5v72h140v-93q0 -51 -34.5 -75t-117.5 -24h-196q-83 0 -117.5 24t-34.5 75v93z" />
    <glyph glyph-name="uni0946" unicode="&#x946;" horiz-adv-x="0" 
d="M-455 851h170v-7q0 -23 7 -29.5t30 -6.5h116q92 0 92 -92v-110h-170v53q0 23 -7 29.5t-29 6.5h-117q-92 0 -92 92v64z" />
    <glyph glyph-name="uni0947" unicode="&#x947;" horiz-adv-x="0" 
d="M-187 843l143 -204h-164q-60 47 -124 129l-58 75h203z" />
    <glyph glyph-name="uni0948" unicode="&#x948;" horiz-adv-x="0" 
d="M-473 843h200q106 -138 138 -187h5q-24 42 -84 187h154l14 -204h-166q-65 40 -144 106z" />
    <glyph glyph-name="uni0949" unicode="&#x949;" 
d="M235 887h140v-93q0 -51 -34.5 -75t-117.5 -24h-196q-83 0 -117.5 24t-34.5 75v93h140v-72q0 -15 6.5 -20.5t21.5 -5.5h164q15 0 21.5 5.5t6.5 20.5v72zM-20 529v113h290v-113h-60v-529h-170v529h-60z" />
    <glyph glyph-name="uni094A" unicode="&#x94a;" 
d="M270 642v-113h-60v-529h-170v529h-60v113h60v17q0 23 -7 29.5t-29 6.5h-117q-92 0 -92 92v64h170v-7q0 -23 7 -29.5t30 -6.5h116q92 0 92 -92v-74h60z" />
    <glyph glyph-name="uni094B" unicode="&#x94b;" 
d="M270 642v-113h-60v-529h-170v529h-60v113h62q-58 46 -120 126l-58 75h203l141 -201h62z" />
    <glyph glyph-name="uni094C" unicode="&#x94c;" 
d="M270 642v-113h-60v-529h-170v529h-60v113h58q-63 39 -139 103l-117 98h200q106 -138 138 -187h5q-24 42 -84 187h154l14 -201h61z" />
    <glyph glyph-name="uni094D" unicode="&#x94d;" horiz-adv-x="0" 
d="M-54 -61l130 -150h-166l-130 150h166z" />
    <glyph glyph-name="uni0950" unicode="&#x950;" horiz-adv-x="958" 
d="M768 380q78 0 109 -29.5t31 -87.5v-146q0 -58 -31 -87.5t-109 -29.5h-122q-78 0 -109 29.5t-31 87.5v102h170v-86q0 -20 23 -20h16q23 0 23 20v112q0 20 -23 20h-272q9 -12 9 -37v-111q0 -58 -31 -87.5t-109 -29.5h-122q-78 0 -109 29.5t-31 87.5v119h170v-103
q0 -20 23 -20h16q23 0 23 20v108q0 24 -23 24h-33v113h33q23 0 23 24v107q0 20 -23 20h-16q-23 0 -23 -20v-92h-170v108q0 58 31 87.5t109 29.5h122q72 0 104 -25.5t35 -75.5h165q15 0 21.5 5.5t6.5 20.5v72h170v-94q0 -58 -31 -87.5t-109 -29.5h-222v-11q0 -25 -9 -37h325z
M598 713v-129h-122v129h122z" />
    <glyph glyph-name="uni0915093C" unicode="&#x958;" horiz-adv-x="700" 
d="M720 529h-285v-73q15 16 53 16h61q66 0 98.5 -29.5t32.5 -97.5v-160q0 -57 -30.5 -82t-109.5 -25h-64v103h11q23 0 23 20v134q0 24 -23 24h-29q-23 0 -23 -24v-335h-170v94q-15 -16 -53 -16h-61q-66 0 -98.5 29.5t-32.5 97.5v160q0 57 30.5 82t109.5 25h64v-103h-11
q-23 0 -23 -20v-134q0 -24 23 -24h29q23 0 23 24v314h-285v113h740v-113zM87 -129v129h122v-129h-122z" />
    <glyph glyph-name="uni0916093C" unicode="&#x959;" horiz-adv-x="931" 
d="M951 642v-113h-60v-529h-170v94q-15 -16 -53 -16h-61q-66 0 -98.5 29.5t-32.5 97.5v160q0 57 30.5 82t109.5 25h64v-103h-11q-23 0 -23 -20v-134q0 -24 23 -24h29q23 0 23 24v314h-294q6 -11 6 -25v-159q0 -63 -32.5 -89t-110.5 -26h-80v-83q0 -19 7.5 -26.5t26.5 -7.5
h248v-113h-272q-95 0 -137.5 26.5t-42.5 88.5v357h170v-129h19q19 0 26.5 7.5t7.5 26.5v118q0 19 -7.5 26.5t-26.5 7.5h-249v113h971zM160 -177v129h122v-129h-122z" />
    <glyph glyph-name="uni0917093C" unicode="&#x95a;" horiz-adv-x="726" 
d="M746 642v-113h-60v-529h-170v529h-80v-324q0 -70 -35.5 -98.5t-125.5 -28.5h-86q-90 0 -125.5 28.5t-35.5 98.5v152q0 62 42.5 88.5t137.5 26.5h58v57h-286v113h766zM223 191h18q25 0 25 24v144h-37q-19 0 -25 -5.5t-6 -25.5v-113q0 -24 25 -24zM170 -117v129h122v-129
h-122z" />
    <glyph glyph-name="uni091C093C" unicode="&#x95b;" horiz-adv-x="728" 
d="M748 642v-113h-60v-529h-170v359h-70v-154q0 -70 -35.5 -98.5t-125.5 -28.5h-86q-90 0 -125.5 28.5t-35.5 98.5v267h170v-257q0 -24 25 -24h18q25 0 25 24v257h240v57h-538v113h768zM190 -117v129h122v-129h-122z" />
    <glyph glyph-name="uni0921093C" unicode="&#x95c;" horiz-adv-x="470" 
d="M407 369h-180q-23 0 -23 -20v-23q0 -20 23 -20h63q79 0 109.5 -25t30.5 -82v-92q0 -57 -30.5 -82t-109.5 -25h-122q-79 0 -109.5 25t-30.5 82v52h170v-36q0 -20 17 -20h22q23 0 23 20v60q0 20 -23 20h-63q-79 0 -109.5 25t-30.5 82v55q0 57 30.5 82t109.5 25h63v57h-257
v113h510v-113h-83v-160zM169 -194v129h122v-129h-122z" />
    <glyph glyph-name="uni0922093C" unicode="&#x95d;" horiz-adv-x="517" 
d="M448 359h-213q-25 0 -25 -24v-198q0 -24 25 -24h57q25 0 25 24v30q0 24 -25 24h-44v113h78q90 0 125.5 -28.5t35.5 -98.5v-50q0 -70 -35.5 -98.5t-125.5 -28.5h-125q-90 0 -125.5 28.5t-35.5 98.5v238q0 57 30.5 82t109.5 25h98v57h-298v113h557v-113h-89v-170zM202 -183
v129h122v-129h-122z" />
    <glyph glyph-name="uni092B093C" unicode="&#x95e;" horiz-adv-x="720" 
d="M740 529h-285v-73q15 16 53 16h61q66 0 98.5 -29.5t32.5 -97.5v-160q0 -57 -30.5 -82t-109.5 -25h-64v103h11q23 0 23 20v134q0 24 -23 24h-29q-23 0 -23 -24v-335h-170v94q-15 -16 -53 -16h-61q-66 0 -98.5 29.5t-32.5 97.5v324h-60v113h760v-113zM285 215v314h-75v-314
q0 -24 23 -24h29q23 0 23 24zM87 -130v129h122v-129h-122z" />
    <glyph glyph-name="uni092F093C" unicode="&#x95f;" horiz-adv-x="628" 
d="M648 642v-113h-60v-529h-170v94q-16 -16 -49 -16h-168q-84 0 -122.5 29t-38.5 98v187h125q23 0 23 20v83q0 19 -7 26.5t-27 7.5h-174v113h668zM418 225v304h-82q14 -17 14 -44v-89q0 -59 -29 -88t-106 -29h-5v-64q0 -24 23 -24h151q20 0 27 7.5t7 26.5zM202 -130v129h122
v-129h-122z" />
    <glyph glyph-name="uni0960" unicode="&#x960;" horiz-adv-x="1036" 
d="M539 529v-248h76q-6 11 -6 25v39q0 70 35.5 98.5t125.5 28.5h80q90 0 125.5 -28.5t35.5 -98.5v-37q0 -70 -35.5 -98.5t-125.5 -28.5h-48q-23 0 -23 -24v-24q0 -24 23 -24h46v-113h-46q-23 0 -23 -24v-24q0 -24 23 -24h109v-113h-141q-84 0 -122.5 29t-38.5 98v56
q0 50 47 56v5q-47 6 -47 56v45q0 14 6 25h-76v-181h-170v181h-20l-102 -181h-195l130 231l-52 76q-19 28 -34 37.5t-41 9.5h-15v113h104q48 0 76 -15.5t53 -51.5l81 -119h15v248h-389v113h1091v-113h-532zM779 351v-50q0 -20 23 -20h16q23 0 23 20v50q0 20 -23 20h-16
q-23 0 -23 -20z" />
    <glyph glyph-name="uni0961" unicode="&#x961;" horiz-adv-x="740" 
d="M700 80h-58q-23 0 -23 -24v-24q0 -24 23 -24h46v-113h-46q-23 0 -23 -24v-24q0 -24 23 -24h109v-113h-141q-84 0 -122.5 29t-38.5 98v56q0 50 47 56v5q-47 6 -47 56v86q0 79 81 94v169h-52q-23 0 -23 -24v-127h-170v127q0 24 -23 24h-29q-23 0 -23 -24v-202q0 -20 23 -20
h11v-113h-64q-79 0 -109.5 25t-30.5 82v238q0 68 32.5 97.5t98.5 29.5h141q50 0 56 -47h5q6 47 56 47h101v57h-550v113h780v-113h-60v-449z" />
    <glyph glyph-name="uni0964" unicode="&#x964;" horiz-adv-x="410" 
d="M290 674v-706h-170v706h170z" />
    <glyph glyph-name="uni0965" unicode="&#x965;" horiz-adv-x="650" 
d="M530 674v-706h-170v706h170zM290 674v-706h-170v706h170z" />
    <glyph glyph-name="uni0966" unicode="&#x966;" horiz-adv-x="501" 
d="M289 147v348q0 22 -25 22h-27q-25 0 -25 -22v-348q0 -22 25 -22h27q25 0 25 22zM464 518v-394q0 -124 -147 -124h-133q-147 0 -147 124v394q0 124 147 124h133q147 0 147 -124z" />
    <glyph glyph-name="uni0967" unicode="&#x967;" horiz-adv-x="323" 
d="M283 642v-642h-175v517h-90v125h265z" />
    <glyph glyph-name="uni0968" unicode="&#x968;" horiz-adv-x="469" 
d="M198 495v-73h-175v96q0 124 147 124h121q149 0 149 -124v-92q0 -50 -16.5 -85.5t-53.5 -76.5l-124 -139h194v-125h-412v114l190 204q30 31 40 53.5t10 55.5v68q0 22 -25 22h-20q-25 0 -25 -22z" />
    <glyph glyph-name="uni0969" unicode="&#x969;" horiz-adv-x="477" 
d="M200 495v-63h-175v86q0 124 147 124h123q147 0 147 -124v-78q0 -87 -48 -113q28 -12 38 -36.5t10 -66.5v-100q0 -124 -147 -124h-123q-147 0 -147 124v86h175v-63q0 -22 25 -22h20q25 0 25 22v99q0 22 -25 22h-81v115h81q25 0 25 22v90q0 22 -25 22h-20q-25 0 -25 -22z
" />
    <glyph glyph-name="uni096A" unicode="&#x96a;" horiz-adv-x="507" 
d="M507 242v-127h-68v-115h-164v115h-265v155l241 372h176l-258 -400h106v127h164v-127h68z" />
    <glyph glyph-name="uni096B" unicode="&#x96b;" horiz-adv-x="498" 
d="M220 423h101q147 0 147 -124v-175q0 -124 -147 -124h-134q-147 0 -147 124v101h175v-78q0 -22 25 -22h31q25 0 25 22v129q0 22 -25 22h-223v344h410v-125h-238v-94z" />
    <glyph glyph-name="uni096C" unicode="&#x96c;" horiz-adv-x="494" 
d="M207 385h110q147 0 147 -124v-137q0 -124 -147 -124h-133q-147 0 -147 124v394q0 124 147 124h123q147 0 147 -124v-72h-170v49q0 22 -25 22h-27q-25 0 -25 -22v-110zM294 147v96q0 22 -25 22h-62v-118q0 -22 25 -22h37q25 0 25 22z" />
    <glyph glyph-name="uni096D" unicode="&#x96d;" horiz-adv-x="422" 
d="M417 642v-95l-195 -547h-181l189 507h-220v135h407z" />
    <glyph glyph-name="uni096E" unicode="&#x96e;" horiz-adv-x="498" 
d="M463 518v-78q0 -87 -48 -113q28 -12 38 -36.5t10 -66.5v-100q0 -124 -147 -124h-134q-147 0 -147 124v100q0 82 47 103q-47 26 -47 113v78q0 124 147 124h134q147 0 147 -124zM296 145v106q0 22 -25 22h-44q-25 0 -25 -22v-106q0 -22 25 -22h44q25 0 25 22zM296 400v97
q0 22 -25 22h-44q-25 0 -25 -22v-97q0 -22 25 -22h44q25 0 25 22z" />
    <glyph glyph-name="uni096F" unicode="&#x96f;" horiz-adv-x="494" 
d="M177 642h133q147 0 147 -124v-394q0 -124 -147 -124h-125q-147 0 -147 124v67h170v-44q0 -22 25 -22h29q25 0 25 22v100h-110q-147 0 -147 124v147q0 124 147 124zM225 362h62v133q0 22 -25 22h-37q-25 0 -25 -22v-111q0 -22 25 -22z" />
    <glyph glyph-name="uni0970" unicode="&#x970;" horiz-adv-x="397" 
d="M174 363.5q-7 -11.5 -7 -44t7.5 -44.5t23.5 -12t24 12t8 44.5t-7.5 44t-24.5 11.5t-24 -11.5zM50 319q0 73 39.5 111t108.5 38t109 -38t40 -111t-40 -111t-109 -38t-108.5 38t-39.5 111z" />
    <glyph glyph-name="uni0972" unicode="&#x972;" horiz-adv-x="730" 
d="M732 887h140v-93q0 -51 -34.5 -75t-117.5 -24h-196q-83 0 -117.5 24t-34.5 75v93h140v-72q0 -15 6.5 -20.5t21.5 -5.5h164q15 0 21.5 5.5t6.5 20.5v72zM750 642v-113h-60v-529h-170v255h-67v-60q0 -58 -31 -87.5t-109 -29.5h-122q-78 0 -109 29.5t-31 87.5v82h170v-66
q0 -20 23 -20h16q23 0 23 20v71q0 24 -23 24h-33v113h33q23 0 23 24v71q0 20 -23 20h-16q-23 0 -23 -20v-56h-170v72q0 58 31 87.5t109 29.5h122q78 0 109 -29.5t31 -87.5v-109q0 -42 -33 -53h100v274h230z" />
    <glyph glyph-name="uni200B" unicode="&#x200b;" horiz-adv-x="0" 
 />
    <glyph glyph-name="uni200C" unicode="&#x200c;" horiz-adv-x="0" 
d="M24 -230h-47v1041h47v-1041z" />
    <glyph glyph-name="uni200D" unicode="&#x200d;" horiz-adv-x="0" 
d="M24 -230h-47v865l-69 -73l-33 33l93 93l-95 95l33 33l95 -95l96 95l32 -32l-96 -96l96 -95l-33 -33l-72 75v-865z" />
    <glyph glyph-name="endash" unicode="&#x2013;" horiz-adv-x="607" 
d="M46 245v115h409v-115h-409z" />
    <glyph glyph-name="emdash" unicode="&#x2014;" horiz-adv-x="749" 
d="M46 245v115h648v-115h-648z" />
    <glyph glyph-name="quoteleft" unicode="&#x2018;" horiz-adv-x="254" 
d="M214 329h-174v90l127 223h47v-313z" />
    <glyph glyph-name="quoteright" unicode="&#x2019;" horiz-adv-x="254" 
d="M40 642h174v-90l-127 -223h-47v313z" />
    <glyph glyph-name="quotesinglbase" unicode="&#x201a;" horiz-adv-x="252" 
d="M40 164h172v-90l-120 -223h-52v313z" />
    <glyph glyph-name="quotedblleft" unicode="&#x201c;" horiz-adv-x="464" 
d="M212 329h-172v90l127 223h45v-313zM424 329h-172v90l127 223h45v-313z" />
    <glyph glyph-name="quotedblright" unicode="&#x201d;" horiz-adv-x="464" 
d="M252 642h172v-90l-127 -223h-45v313zM40 642h172v-90l-127 -223h-45v313z" />
    <glyph glyph-name="quotedblbase" unicode="&#x201e;" horiz-adv-x="464" 
d="M252 164h172v-90l-127 -223h-45v313zM40 164h172v-90l-127 -223h-45v313z" />
    <glyph glyph-name="dagger" unicode="&#x2020;" horiz-adv-x="454" 
d="M444 490v-115h-130v-484h-175v484h-129v115h129v152h175v-152h130z" />
    <glyph glyph-name="daggerdbl" unicode="&#x2021;" horiz-adv-x="484" 
d="M459 375h-130v-245h130v-115h-130v-152h-175v152h-129v115h129v245h-129v115h129v152h175v-152h130v-115z" />
    <glyph glyph-name="bullet" unicode="&#x2022;" horiz-adv-x="396" 
d="M50 321q0 61 43.5 104.5t104.5 43.5t104.5 -43.5t43.5 -104.5t-43.5 -104.5t-104.5 -43.5t-104.5 43.5t-43.5 104.5z" />
    <glyph glyph-name="ellipsis" unicode="&#x2026;" horiz-adv-x="752" 
d="M540 0v164h172v-164h-172zM290 0v164h172v-164h-172zM40 0v164h172v-164h-172z" />
    <glyph glyph-name="perthousand" unicode="&#x2030;" horiz-adv-x="1270" 
d="M1104 120v143q0 18 -20 18h-16q-20 0 -20 -18v-143q0 -17 20 -17h16q20 0 20 17zM1245 283v-183q0 -100 -118 -100h-102q-118 0 -118 100v183q0 100 118 100h102q118 0 118 -100zM568 642h127l-363 -642h-125zM732 120v143q0 18 -20 18h-16q-20 0 -20 -18v-143
q0 -17 20 -17h16q20 0 20 17zM222 379v143q0 18 -20 18h-16q-20 0 -20 -18v-143q0 -17 20 -17h16q20 0 20 17zM873 283v-183q0 -100 -118 -100h-102q-118 0 -118 100v183q0 100 118 100h102q118 0 118 -100zM363 542v-183q0 -100 -118 -100h-102q-118 0 -118 100v183
q0 100 118 100h102q118 0 118 -100z" />
    <glyph glyph-name="guilsinglleft" unicode="&#x2039;" horiz-adv-x="299" 
d="M125 96l-110 153l110 151h169l-107 -151l107 -153h-169z" />
    <glyph glyph-name="guilsinglright" unicode="&#x203a;" horiz-adv-x="299" 
d="M294 249l-110 -153h-169l107 153l-107 151h169z" />
    <glyph glyph-name="fraction" unicode="&#x2044;" horiz-adv-x="411" 
d="M287 702h144l-307 -762h-144z" />
    <glyph glyph-name="Euro" unicode="&#x20ac;" horiz-adv-x="516" 
d="M491 402h-175v103q0 22 -25 22h-35q-25 0 -25 -22v-72h59v-96h-59v-32h59v-96h-59v-72q0 -22 25 -22h35q25 0 25 22v99h175v-112q0 -124 -147 -124h-141q-147 0 -147 124v85h-41v96h41v32h-41v96h41v85q0 124 147 124h141q147 0 147 -124v-116z" />
    <glyph glyph-name="uni20B9" unicode="&#x20b9;" horiz-adv-x="456" 
d="M416 642v-99h-80q7 -15 7 -55v-4h73v-99h-73v-45q0 -63 -28 -92t-96 -34l144 -214h-180l-143 213v113h110q23 0 23 24v35h-133v99h133v37q0 22 -25 22h-108v99h376z" />
    <glyph glyph-name="trademark" unicode="&#x2122;" horiz-adv-x="731" 
d="M701 642v-332h-105v161l-39 -118h-83l-38 116v-159h-105v332h120l65 -184l65 184h120zM10 547v95h294v-95h-87v-237h-121v237h-86z" />
    <glyph glyph-name="uni2126" unicode="&#x2126;" horiz-adv-x="532" 
d="M516 125v-125h-224v125h5q15 0 15 32v338q0 22 -25 22h-42q-25 0 -25 -22v-338q0 -32 15 -32h5v-125h-225v125h68q-38 27 -38 89v304q0 124 147 124h148q147 0 147 -124v-304q0 -62 -38 -89h67z" />
    <glyph glyph-name="product" unicode="&#x220f;" horiz-adv-x="539" 
d="M498 582h1v-582h-175v527h-96v-403q0 -124 -147 -124h-81v125h33q25 0 25 22v495h440v-60z" />
    <glyph glyph-name="minus" unicode="&#x2212;" horiz-adv-x="666" 
d="M15 257v125h483v-125h-483z" />
    <glyph glyph-name="uni2215" unicode="&#x2215;" horiz-adv-x="411" 
d="M287 702h144l-307 -762h-144z" />
    <glyph glyph-name="uni2219" unicode="&#x2219;" horiz-adv-x="252" 
d="M40 239v164h172v-164h-172z" />
    <glyph glyph-name="infinity" unicode="&#x221e;" horiz-adv-x="607" 
d="M421 531h51q147 0 147 -124v-119q0 -124 -147 -124h-32q-46 0 -73 16q-27 15 -63 65l-5 -8q-26 -47 -50.5 -60t-79.5 -13h-35q-147 0 -147 124v119q0 124 147 124h39q41 0 67 -20q24 -19 57 -69q33 58 54 73.5t70 15.5zM138 269h31q29 0 46 29l27 48l-25 39
q-26 41 -53 41h-26q-18 0 -23.5 -6.5t-5.5 -25.5v-93q0 -19 5 -25.5t24 -6.5zM497 301v93q0 19 -5.5 25.5t-23.5 6.5h-31v1h-10q-21 0 -37 -29l-32 -56l22 -33q26 -40 51 -40h37q19 0 24 6.5t5 25.5z" />
    <glyph glyph-name="integral" unicode="&#x222b;" horiz-adv-x="483" 
d="M336 -24q0 -124 -147 -124h-101v125h53q22 0 25 22v566q0 124 147 124h101v-125h-53q-22 0 -25 -22v-566z" />
    <glyph glyph-name="approxequal" unicode="&#x2248;" horiz-adv-x="563" 
d="M360 139q-39 0 -84.5 28.5t-65 28.5t-25 -7t-5.5 -25v-25h-155v65q0 52 26 76t85 24h67q59 0 118 -42q20 -15 35.5 -15t21 7t5.5 25v25h155v-65q0 -52 -26 -76t-85 -24h-67zM360 335q-39 0 -84.5 28.5t-65 28.5t-25 -7t-5.5 -25v-25h-155v65q0 52 26 76t85 24h67
q59 0 118 -42q20 -15 35.5 -15t21 7t5.5 25v25h155v-65q0 -52 -26 -76t-85 -24h-67z" />
    <glyph glyph-name="notequal" unicode="&#x2260;" horiz-adv-x="533" 
d="M508 361h-164l-46 -83h210v-129h-281l-33 -60h-109l33 60h-93v129h164l46 83h-210v129h281l33 60h109l-33 -60h93v-129z" />
    <glyph glyph-name="lessequal" unicode="&#x2264;" horiz-adv-x="533" 
d="M508 257v-118h-483v118h483zM508 458l-365 -29l365 -31v-128l-483 86v150l483 78v-126z" />
    <glyph glyph-name="greaterequal" unicode="&#x2265;" horiz-adv-x="533" 
d="M25 139v118h483v-118h-483zM390 429l-365 29v126l483 -78v-150l-483 -86v128z" />
    <glyph glyph-name="lozenge" unicode="&#x25ca;" horiz-adv-x="699" 
d="M422 642l188 -319l-188 -322h-173l-182 322l182 319h173zM335 125l108 198l-108 194l-101 -194z" />
    <glyph glyph-name="uni25CC" unicode="&#x25cc;" horiz-adv-x="416" 
d="M175 151h66v-73h-66v73zM175 485h66v-73h-66v73zM279 412v73q66 0 66 -73h-66zM279 374h66v-73h-66v73zM279 262h66v-73h-66v73zM279 151h66q0 -30 -18 -51.5t-48 -21.5v73zM137 412h-66q0 34 18 53.5t48 19.5v-73zM71 374h66v-73h-66v73zM71 262h66v-73h-66v73zM137 151
v-73q-29 0 -47.5 20t-18.5 53h66z" />
    <glyph glyph-name="commaaccent" unicode="&#xf6c3;" horiz-adv-x="500" 
d="M166 -46h167v-87l-115 -166h-52v253z" />
    <glyph glyph-name="fi" unicode="&#xfb01;" horiz-adv-x="510" 
d="M303 669h167v-118h-167v118zM470 499v-499h-167v374h-75v-374h-167v374h-51v125h51v46q0 124 147 124h61v-118h-16q-25 0 -25 -22v-30h242z" />
    <glyph glyph-name="fl" unicode="&#xfb02;" horiz-adv-x="510" 
d="M304 669h166v-669h-166v374h-76v-374h-167v374h-51v125h51v46q0 124 147 124h61v-118h-16q-25 0 -25 -22v-30h76v170z" />
    <glyph glyph-name="itfLogo" horiz-adv-x="1648" 
d="M1327 224v185h196v-185h-196zM1327 449v185h196v-185h-196zM1091 0v634h196v-634h-196zM855 449v185h196v-185h-196zM619 0v634h196v-634h-196zM383 449v185h196v-185h-196zM147 0v634h196v-634h-196z" />
    <glyph glyph-name="uni0915094D" horiz-adv-x="492" 
d="M573 529h-138v-103q15 16 53 16h85v-113h-115q-23 0 -23 -24v-305h-170v94q-15 -16 -53 -16h-61q-66 0 -98.5 29.5t-32.5 97.5v160q0 57 30.5 82t109.5 25h64v-103h-11q-23 0 -23 -20v-134q0 -24 23 -24h29q23 0 23 24v314h-285v113h593v-113z" />
    <glyph glyph-name="uni0916094D" horiz-adv-x="693" 
d="M-20 642h792v-113h-345q6 -11 6 -25v-159q0 -63 -32.5 -89t-110.5 -26h-80v-83q0 -19 7.5 -26.5t26.5 -7.5h248v-113h-272q-95 0 -137.5 26.5t-42.5 88.5v357h170v-129h19q19 0 26.5 7.5t7.5 26.5v118q0 19 -7.5 26.5t-26.5 7.5h-249v113zM646 349v-134q0 -24 23 -24h103
v-113h-165q-66 0 -98.5 29.5t-32.5 97.5v160q0 57 30.5 82t109.5 25h64v-103h-11q-23 0 -23 -20z" />
    <glyph glyph-name="uni0917094D" horiz-adv-x="471" 
d="M496 642v-113h-60v-324q0 -70 -35.5 -98.5t-125.5 -28.5h-86q-90 0 -125.5 28.5t-35.5 98.5v152q0 62 42.5 88.5t137.5 26.5h58v57h-286v113h516zM223 191h18q25 0 25 24v144h-37q-19 0 -25 -5.5t-6 -25.5v-113q0 -24 25 -24z" />
    <glyph glyph-name="uni0918094D" horiz-adv-x="282" 
d="M412 529h-168q-20 0 -27 -7.5t-7 -26.5v-55q0 -24 23 -24h33v-113h-33q-23 0 -23 -24v-64q0 -24 23 -24h179v-113h-211q-84 0 -122.5 29t-38.5 98v96q0 50 47 56v5q-47 6 -47 56v86q0 14 6 25h-66v113h432v-113z" />
    <glyph glyph-name="uni0919094D" horiz-adv-x="558" 
d="M-20 642h598v-113h-171v-160h-180q-23 0 -23 -20v-23q0 -20 23 -20h63q79 0 109.5 -25t30.5 -82v-92q0 -57 -30.5 -82t-109.5 -25h-122q-79 0 -109.5 25t-30.5 82v52h170v-36q0 -20 17 -20h22q23 0 23 20v60q0 20 -23 20h-63q-79 0 -109.5 25t-30.5 82v55q0 57 30.5 82
t109.5 25h63v57h-257v113zM434 284v129h122v-129h-122zM147 -61h166l130 -150h-166z" />
    <glyph glyph-name="uni091A094D" horiz-adv-x="249" 
d="M-22 642h391v-113h-391v113zM214 335v-120q0 -24 23 -24h132v-113h-194q-66 0 -98.5 29.5t-32.5 97.5v100q0 35 17 54h-73v113h272v-113h-23q-23 0 -23 -24z" />
    <glyph glyph-name="uni091B094D" horiz-adv-x="701" 
d="M721 529h-483q-20 0 -27 -7.5t-7 -26.5v-98q0 -24 23 -24h33v-113h-33q-23 0 -23 -24v-97q0 -24 23 -24h241q23 0 23 24v219q0 20 -23 20h-16q-23 0 -23 -20v-40q0 -20 23 -20h11v-93h-41q-60 0 -91.5 24t-31.5 83v53q0 60 34.5 83.5t108.5 23.5h76q74 0 108.5 -23.5
t34.5 -83.5v-238q0 -69 -38.5 -98t-122.5 -29h-305q-84 0 -122.5 29t-38.5 98v131q0 50 47 56v5q-47 6 -47 56v129q0 14 6 25h-60v113h741v-113z" />
    <glyph glyph-name="uni091C094D" horiz-adv-x="478" 
d="M210 472v-257q0 -24 25 -24h18q25 0 25 24v257h282v-113h-112v-154q0 -70 -35.5 -98.5t-125.5 -28.5h-86q-90 0 -125.5 28.5t-35.5 98.5v267h170zM560 642v-113h-580v113h580z" />
    <glyph glyph-name="uni091D094D" horiz-adv-x="463" 
d="M414 369h-191q-23 0 -23 -20v-24q0 -20 23 -20h330v-103h-123q2 -14 2 -22v-73q0 -57 -30.5 -82t-109.5 -25h-92v-62h-170v227h170v-62h39q23 0 23 20v59q0 20 -23 20h-69q-79 0 -109.5 25t-30.5 82v56q0 57 30.5 82t109.5 25h74v57h-264v113h573v-113h-139v-160z" />
    <glyph glyph-name="uni091E094D" horiz-adv-x="466" 
d="M-20 642h596v-113h-596v113zM428 355v-23h148v-113h-148v-14q0 -70 -35.5 -98.5t-125.5 -28.5h-86q-90 0 -125.5 28.5t-35.5 98.5v64h170v-54q0 -24 25 -24h18q25 0 25 24v124q0 20 -23 20h-102v113h155q78 0 109 -29.5t31 -87.5z" />
    <glyph glyph-name="uni091F094D" horiz-adv-x="488" 
d="M-20 642h528v-113h-60v-170h-213q-25 0 -25 -24v-198q0 -24 25 -24h18q25 0 25 24v102h170v-112q0 -70 -35.5 -98.5t-125.5 -28.5h-86q-90 0 -125.5 28.5t-35.5 98.5v238q0 57 30.5 82t109.5 25h98v57h-298v113zM187 -61h166l130 -150h-166z" />
    <glyph glyph-name="uni0920094D" horiz-adv-x="488" 
d="M508 529h-179v-59q65 -6 92 -35t27 -90v-218q0 -70 -35.5 -98.5t-125.5 -28.5h-86q-90 0 -125.5 28.5t-35.5 98.5v218q0 61 27 90t92 35v59h-179v113h528v-113zM278 137v198q0 24 -25 24h-18q-25 0 -25 -24v-198q0 -24 25 -24h18q25 0 25 24zM147 -61h166l130 -150h-166z
" />
    <glyph glyph-name="uni0921094D" horiz-adv-x="470" 
d="M-20 642h510v-113h-83v-160h-180q-23 0 -23 -20v-23q0 -20 23 -20h63q79 0 109.5 -25t30.5 -82v-92q0 -57 -30.5 -82t-109.5 -25h-122q-79 0 -109.5 25t-30.5 82v52h170v-36q0 -20 17 -20h22q23 0 23 20v60q0 20 -23 20h-63q-79 0 -109.5 25t-30.5 82v55q0 57 30.5 82
t109.5 25h63v57h-257v113zM147 -61h166l130 -150h-166z" />
    <glyph glyph-name="uni0922094D" horiz-adv-x="517" 
d="M448 359h-213q-25 0 -25 -24v-198q0 -24 25 -24h57q25 0 25 24v30q0 24 -25 24h-44v113h78q90 0 125.5 -28.5t35.5 -98.5v-50q0 -70 -35.5 -98.5t-125.5 -28.5h-125q-90 0 -125.5 28.5t-35.5 98.5v238q0 57 30.5 82t109.5 25h98v57h-298v113h557v-113h-89v-170zM187 -61
h166l130 -150h-166z" />
    <glyph glyph-name="uni0923094D" horiz-adv-x="488" 
d="M508 642v-113h-60v-324q0 -70 -35.5 -98.5t-125.5 -28.5h-86q-90 0 -125.5 28.5t-35.5 98.5v324h-60v113h528zM278 215v314h-68v-314q0 -24 25 -24h18q25 0 25 24z" />
    <glyph glyph-name="uni0924094D" horiz-adv-x="243" 
d="M303 472v-113h-70q-23 0 -23 -20v-206q0 -20 23 -20h11v-113h-64q-79 0 -109.5 25t-30.5 82v258q0 57 30.5 82t109.5 25h123zM303 642v-113h-323v113h323z" />
    <glyph glyph-name="uni0925094D" horiz-adv-x="431" 
d="M556 78h-345q-84 0 -122.5 29t-38.5 98v198h130q23 0 23 20v91q0 20 -23 20h-7q-23 0 -23 -20v-36h-90v63q0 55 31.5 80.5t98.5 25.5h53q67 0 98.5 -25.5t31.5 -80.5v-134q0 -58 -31 -87.5t-109 -29.5h-13v-75q0 -24 23 -24h313v-113z" />
    <glyph glyph-name="uni0926094D" horiz-adv-x="474" 
d="M421 -61l130 -150h-166l-130 150h166zM264 0v94q-15 -16 -53 -16h-24q-90 0 -125.5 28.5t-35.5 98.5v160q0 57 30.5 82t109.5 25h98v57h-298v113h528v-113h-60v-170h-213q-25 0 -25 -24v-120q0 -24 23 -24h22q23 0 23 24v76h170v-291h-170z" />
    <glyph glyph-name="uni0927094D" horiz-adv-x="419" 
d="M220 427q0 -24 23 -24h69v-113h-69q-23 0 -23 -24v-51q0 -24 23 -24h310v-113h-373q-67 0 -98.5 25.5t-31.5 80.5v104q0 50 47 56v5q-47 6 -47 56v136q0 55 31.5 80.5t98.5 25.5h53q67 0 98.5 -25.5t31.5 -80.5v-63h-90v36q0 20 -23 20h-7q-23 0 -23 -20v-87z" />
    <glyph glyph-name="uni0928094D" horiz-adv-x="458" 
d="M-20 642h598v-113h-598v113zM30 205v160q0 57 30.5 82t109.5 25h408v-113h-140v-154q0 -70 -35.5 -98.5t-125.5 -28.5h-86q-90 0 -125.5 28.5t-35.5 98.5zM200 339v-124q0 -24 25 -24h18q25 0 25 24v144h-45q-23 0 -23 -20z" />
    <glyph glyph-name="uni092A094D" horiz-adv-x="245" 
d="M370 529h-160v-314q0 -24 23 -24h137v-113h-199q-66 0 -98.5 29.5t-32.5 97.5v324h-60v113h390v-113z" />
    <glyph glyph-name="uni092B094D" horiz-adv-x="490" 
d="M591 529h-136v-113q15 16 53 16h83v-113h-113q-23 0 -23 -24v-295h-170v94q-15 -16 -53 -16h-61q-66 0 -98.5 29.5t-32.5 97.5v324h-60v113h611v-113zM285 215v314h-75v-314q0 -24 23 -24h29q23 0 23 24z" />
    <glyph glyph-name="uni092C094D" horiz-adv-x="327" 
d="M200 215q0 -24 23 -24h91q-77 93 -114 141v-117zM161 78q-66 0 -98.5 29.5t-32.5 97.5v160q0 57 30.5 82t109.5 25h155v-103h-72l41 -51l98 -130v-110h-231zM392 642v-113h-412v113h412z" />
    <glyph glyph-name="uni092D094D" horiz-adv-x="506" 
d="M626 440v-113h-178v-122q0 -70 -35.5 -98.5t-125.5 -28.5h-86q-90 0 -125.5 28.5t-35.5 98.5v128q0 57 30.5 82t109.5 25h98v74q0 20 -23 20h-13q-23 0 -23 -20v-26h-170v42q0 58 31 87.5t109 29.5h119q78 0 109 -29.5t31 -87.5v-90h178zM278 215v112h-45q-23 0 -23 -20
v-92q0 -24 25 -24h18q25 0 25 24z" />
    <glyph glyph-name="uni092E094D" horiz-adv-x="476" 
d="M576 529h-138v-97h138v-113h-138v-114q0 -70 -35.5 -98.5t-125.5 -28.5h-86q-90 0 -125.5 28.5t-35.5 98.5v120q0 57 30.5 82t109.5 25h98v97h-298v113h606v-113zM268 215v104h-63q-23 0 -23 -20v-84q0 -24 25 -24h36q25 0 25 24z" />
    <glyph glyph-name="uni092F094D" horiz-adv-x="378" 
d="M508 642v-113h-172q14 -17 14 -44v-89q0 -59 -29 -88t-106 -29h-5v-64q0 -24 23 -24h275v-113h-307q-84 0 -122.5 29t-38.5 98v187h125q23 0 23 20v83q0 19 -7 26.5t-27 7.5h-174v113h528z" />
    <glyph glyph-name="uni0930094D" horiz-adv-x="473" 
d="M421 -61l130 -150h-166l-130 150h166zM433 204v-97q0 -57 -30.5 -82t-109.5 -25h-113q-79 0 -109.5 25t-30.5 82v365h170v-109h19q19 0 26.5 7.5t7.5 26.5v98q0 19 -7.5 26.5t-26.5 7.5h-249v113h513v-113h-66q6 -11 6 -25v-139q0 -62 -42.5 -88.5t-137.5 -26.5h-43v-127
q0 -20 23 -20h13q17 0 17 20v81h170z" />
    <glyph glyph-name="uni0932094D" horiz-adv-x="498" 
d="M325 472q50 0 56 -47h5q6 47 56 47h116v-113h-67q-23 0 -23 -24v-167h-170v167q0 24 -23 24h-29q-23 0 -23 -24v-202q0 -20 23 -20h50v-113h-103q-79 0 -109.5 25t-30.5 82v238q0 68 32.5 97.5t98.5 29.5h141zM558 642v-113h-578v113h578z" />
    <glyph glyph-name="uni0933094D" horiz-adv-x="730" 
d="M285 335q0 24 -23 24h-29q-23 0 -23 -24v-120q0 -24 23 -24h29q23 0 23 24v120zM520 335q0 24 -23 24h-29q-23 0 -23 -24v-120q0 -24 23 -24h29q23 0 23 24v120zM559 472q66 0 98.5 -29.5t32.5 -97.5v-140q0 -68 -32.5 -97.5t-98.5 -29.5h-115q-70 0 -76 47h-5
q-6 -47 -76 -47h-116q-66 0 -98.5 29.5t-32.5 97.5v140q0 68 32.5 97.5t98.5 29.5h116q70 0 76 -47h5q6 47 76 47h115zM750 642v-113h-770v113h770z" />
    <glyph glyph-name="uni0935094D" horiz-adv-x="245" 
d="M244 472v-103h-11q-23 0 -23 -20v-134q0 -24 23 -24h137v-113h-199q-66 0 -98.5 29.5t-32.5 97.5v160q0 57 30.5 82t109.5 25h64zM370 642v-113h-390v113h390z" />
    <glyph glyph-name="uni0936094D" horiz-adv-x="513" 
d="M273 233h-43v-110q0 -20 23 -20h13q17 0 17 20v64h170v-80q0 -57 -30.5 -82t-109.5 -25h-113q-79 0 -109.5 25t-30.5 82v299h170v-60h19q19 0 26.5 7.5t7.5 26.5v134q0 20 -23 20h-13q-17 0 -17 -20v-49h-170v65q0 58 31 87.5t109 29.5h113q78 0 109 -29.5t31 -87.5v-182
q0 -62 -42.5 -88.5t-137.5 -26.5z" />
    <glyph glyph-name="uni0937094D" horiz-adv-x="295" 
d="M390 642v-113h-164l69 -114q20 -33 43.5 -97t37.5 -115v-55q0 -34 -25 -52t-69 -18h-111q-66 0 -98.5 29.5t-32.5 97.5v324h-60v113h410zM210 333v-118q0 -24 23 -24h79q18 0 22 14l-84 140q-31 52 -49 109q9 -50 9 -121z" />
    <glyph glyph-name="uni0938094D" horiz-adv-x="457" 
d="M523 642v-113h-96q6 -11 6 -25v-116q0 -14 -6 -25h96v-113h-313v-127q0 -20 23 -20h13q17 0 17 20v81h170v-97q0 -57 -30.5 -82t-109.5 -25h-113q-79 0 -109.5 25t-30.5 82v365h170v-109h19q19 0 26.5 7.5t7.5 26.5v98q0 19 -7.5 26.5t-26.5 7.5h-249v113h543z" />
    <glyph glyph-name="uni0939094D" horiz-adv-x="467" 
d="M448 359h-215q-23 0 -23 -18v-15q0 -18 23 -18h340v-113h-340q-23 0 -23 -24v-34q0 -24 23 -24h215v-113h-247q-84 0 -122.5 29t-38.5 98v66q0 50 47 56v5q-47 6 -47 56v55q0 57 30.5 82t109.5 25h98v57h-298v113h593v-113h-125v-170z" />
    <glyph glyph-name="uni0915093C094D" horiz-adv-x="492" 
d="M573 529h-138v-103q15 16 53 16h85v-113h-115q-23 0 -23 -24v-305h-170v94q-15 -16 -53 -16h-61q-66 0 -98.5 29.5t-32.5 97.5v160q0 57 30.5 82t109.5 25h64v-103h-11q-23 0 -23 -20v-134q0 -24 23 -24h29q23 0 23 24v314h-285v113h593v-113zM87 -129v129h122v-129h-122
z" />
    <glyph glyph-name="uni0916093C094D" horiz-adv-x="693" 
d="M-20 642h792v-113h-345q6 -11 6 -25v-159q0 -63 -32.5 -89t-110.5 -26h-80v-83q0 -19 7.5 -26.5t26.5 -7.5h248v-113h-272q-95 0 -137.5 26.5t-42.5 88.5v357h170v-129h19q19 0 26.5 7.5t7.5 26.5v118q0 19 -7.5 26.5t-26.5 7.5h-249v113zM646 349v-134q0 -24 23 -24h103
v-113h-165q-66 0 -98.5 29.5t-32.5 97.5v160q0 57 30.5 82t109.5 25h64v-103h-11q-23 0 -23 -20zM160 -177v129h122v-129h-122z" />
    <glyph glyph-name="uni0917093C094D" horiz-adv-x="471" 
d="M496 642v-113h-60v-324q0 -70 -35.5 -98.5t-125.5 -28.5h-86q-90 0 -125.5 28.5t-35.5 98.5v152q0 62 42.5 88.5t137.5 26.5h58v57h-286v113h516zM223 191h18q25 0 25 24v144h-37q-19 0 -25 -5.5t-6 -25.5v-113q0 -24 25 -24zM166 -129v129h122v-129h-122z" />
    <glyph glyph-name="uni091C093C094D" horiz-adv-x="478" 
d="M210 472v-257q0 -24 25 -24h18q25 0 25 24v257h282v-113h-112v-154q0 -70 -35.5 -98.5t-125.5 -28.5h-86q-90 0 -125.5 28.5t-35.5 98.5v267h170zM560 642v-113h-580v113h580zM182 0h122v-129h-122v129z" />
    <glyph glyph-name="uni0928093C094D" horiz-adv-x="458" 
d="M-20 642h598v-113h-598v113zM30 205v160q0 57 30.5 82t109.5 25h408v-113h-140v-154q0 -70 -35.5 -98.5t-125.5 -28.5h-86q-90 0 -125.5 28.5t-35.5 98.5zM200 339v-124q0 -24 25 -24h18q25 0 25 24v144h-45q-23 0 -23 -20zM304 -116v129h122v-129h-122z" />
    <glyph glyph-name="uni092B093C094D" horiz-adv-x="490" 
d="M591 529h-136v-113q15 16 53 16h83v-113h-113q-23 0 -23 -24v-295h-170v94q-15 -16 -53 -16h-61q-66 0 -98.5 29.5t-32.5 97.5v324h-60v113h611v-113zM285 215v314h-75v-314q0 -24 23 -24h29q23 0 23 24zM87 -130v129h122v-129h-122z" />
    <glyph glyph-name="uni092F093C094D" horiz-adv-x="378" 
d="M508 642v-113h-172q14 -17 14 -44v-89q0 -59 -29 -88t-106 -29h-5v-64q0 -24 23 -24h275v-113h-307q-84 0 -122.5 29t-38.5 98v187h125q23 0 23 20v83q0 19 -7 26.5t-27 7.5h-174v113h528zM202 -130v129h122v-129h-122z" />
    <glyph glyph-name="itfStar" horiz-adv-x="672" 
d="M663 452l-218 -140q7 -16 48 -125.5t46 -121.5l-204 168q-20 -14 -205 -168l96 247q-14 8 -111 70t-110 70l261 -8q26 102 69 246l66 -246q136 8 262 8z" />
    <glyph glyph-name="uni09080902" horiz-adv-x="462" 
d="M450 775h101v-106h-101v106zM414 786v-144h68v-113h-68v-160h-191q-23 0 -23 -20v-24q0 -20 23 -20h69q79 0 109.5 -25t30.5 -82v-91q0 -57 -30.5 -82t-109.5 -25h-92v-62h-170v227h170v-62h39q23 0 23 20v59q0 20 -23 20h-69q-79 0 -109.5 25t-30.5 82v56q0 57 30.5 82
t109.5 25h74v57h-264v113h264v160q0 57 30.5 82t109.5 25h125v-103h-72q-23 0 -23 -20z" />
    <glyph glyph-name="uni09300941" horiz-adv-x="710" 
d="M730 642v-113h-303q6 -11 6 -25v-33h127q79 0 109.5 -25t30.5 -82v-130h-170v104q0 20 -23 20h-74q-2 -58 -45 -83t-135 -25h-43v-127q0 -20 23 -20h13q17 0 17 20v81h170v-97q0 -57 -30.5 -82t-109.5 -25h-113q-79 0 -109.5 25t-30.5 82v365h170v-109h19q19 0 26.5 7.5
t7.5 26.5v98q0 19 -7.5 26.5t-26.5 7.5h-249v113h750z" />
    <glyph glyph-name="uni09300942" horiz-adv-x="730" 
d="M750 642v-113h-323q6 -11 6 -25v-33h127q79 0 109.5 -25t30.5 -82v-187q0 -57 -30.5 -82t-109.5 -25h-84v113h31q23 0 23 20v135q0 20 -23 20h-74q-2 -58 -45 -83t-135 -25h-43v-127q0 -20 23 -20h13q17 0 17 20v81h170v-97q0 -57 -30.5 -82t-109.5 -25h-113
q-79 0 -109.5 25t-30.5 82v365h170v-109h19q19 0 26.5 7.5t7.5 26.5v98q0 19 -7.5 26.5t-26.5 7.5h-249v113h770z" />
    <glyph glyph-name="uni09390941" horiz-adv-x="488" 
d="M448 359h-215q-23 0 -23 -18v-7q0 -18 23 -18h54q90 0 125.5 -28.5t35.5 -98.5v-29h-170v19q0 24 -25 24h-20q-23 0 -23 -24v-42q0 -24 23 -24h88q67 0 99 -29t32 -97v-44q0 -68 -32.5 -97.5t-98.5 -29.5h-139q-79 0 -123 26.5t-80 88.5l-30 51h199l20 -31q14 -22 44 -22
h39q19 0 25 5.5t6 25.5v9q0 19 -6 25t-25 6h-50q-96 0 -128.5 27.5t-32.5 99.5v74q0 50 47 56v5q-47 6 -47 56v47q0 57 30.5 82t109.5 25h98v57h-298v113h528v-113h-60v-170z" />
    <glyph glyph-name="uni09390942" horiz-adv-x="488" 
d="M286 0h-26q-20 0 -25.5 -6t-5.5 -25v-9q0 -20 5.5 -25.5t25.5 -5.5h48v-114h-118q-65 0 -93 29t-28 98v44q0 22 3 40q-32 17 -32 91v84q0 50 47 56v5q-47 6 -47 56v47q0 57 30.5 82t109.5 25h98v57h-298v113h528v-113h-60v-170h-215q-23 0 -23 -18v-7q0 -18 23 -18h54
q90 0 125.5 -28.5t35.5 -98.5v-29h-170v19q0 24 -25 24h-20q-23 0 -23 -24v-42q0 -24 23 -24h73q97 0 144 -50q19 -21 49 -65l113 -183h-179l-103 163q-13 22 -44 22z" />
    <glyph glyph-name="uni09260943" horiz-adv-x="474" 
d="M434 359h-213q-25 0 -25 -24v-120q0 -24 23 -24h22q23 0 23 24v76h170v-395h-127q-23 0 -23 -20v-33q0 -20 23 -20h187v-113h-240q-79 0 -109.5 25t-30.5 82v75q0 57 30.5 82t109.5 25h10v95q-15 -16 -53 -16h-24q-90 0 -125.5 28.5t-35.5 98.5v160q0 57 30.5 82
t109.5 25h98v57h-298v113h528v-113h-60v-170z" />
    <glyph glyph-name="uni09390943" horiz-adv-x="471" 
d="M431 369h-198q-23 0 -23 -18v-7q0 -18 23 -18h98q66 0 66 -47q0 -19 -16 -40.5t-16 -30.5q0 -12 15 -12h46v-66h-113q-59 0 -59 42q0 15 14 33t14 26q0 12 -15 12h-34q-23 0 -23 -24v-102q0 -24 23 -24h215v-93h-247q-84 0 -122.5 29t-38.5 98v74q0 50 47 56v5
q-47 6 -47 56v47q0 57 30.5 82t109.5 25h81v57h-281v113h511v-113h-60v-160z" />
    <glyph glyph-name="uni094D0928.post" 
d="M270 642v-113h-60v-529h-170v94l-98 -88q-18 -16 -4 -29l39 -45l-127 -113l-56 63q-39 39 -33 80t65 94l214 190v283h-60v113h290z" />
    <glyph glyph-name="uni094D092F.post" horiz-adv-x="677" 
d="M697 642v-113h-60v-529h-170v94q-16 -16 -49 -16h-168q-84 0 -122.5 29t-38.5 98v120h125q23 0 23 20v14q0 20 -23 20h-234v106h284q77 0 106 -29t29 -88v-20q0 -59 -29 -88t-106 -29h-5v-16q0 -24 23 -24h151q19 0 26.5 7.5t7.5 26.5v304h-487v113h717z" />
    <glyph glyph-name="uni094D0930.post" 
d="M270 642v-113h-60v-529h-170v92l-170 -172h-160l330 332v277h-60v113h290z" />
    <glyph glyph-name="uni094D0930" horiz-adv-x="0" 
d="M-206 34h162l114 -181h-139l-56 104l-58 -104h-139z" />
    <glyph glyph-name="uni0930094D.1" horiz-adv-x="351" 
d="M-20 642h391v-113h-391v113zM371 392v-113h-119q-77 0 -106 29t-29 88v56h162v-40q0 -20 23 -20h69z" />
    <glyph glyph-name="uni0930094D.2" horiz-adv-x="0" 
d="M39 709h-53q-23 0 -23 -20v-57h-170v73q0 57 30.5 82t109.5 25h106v-103z" />
    <glyph glyph-name="uni0930094D0902" horiz-adv-x="0" 
d="M-4 775h101v-106h-101v106zM55 909v-103h-72q-23 0 -23 -20v-154h-170v170q0 57 30.5 82t109.5 25h125z" />
    <glyph glyph-name="uni093E0930094D" 
d="M286 709h-53q-23 0 -23 -20v-47h60v-113h-60v-529h-170v529h-60v113h60v63q0 57 30.5 82t109.5 25h106v-103z" />
    <glyph glyph-name="uni093E0930094D0902" 
d="M246 775h101v-106h-101v106zM210 786v-144h60v-113h-60v-529h-170v529h-60v113h60v160q0 57 30.5 82t109.5 25h125v-103h-72q-23 0 -23 -20z" />
    <glyph glyph-name="uni0930094D.aMatraI" horiz-adv-x="0" 
d="M76 709h-53q-23 0 -23 -20v-57h-170v73q0 57 30.5 82t109.5 25h106v-103z" />
    <glyph glyph-name="uni0902.aMatraI" horiz-adv-x="0" 
d="M30 787h122v-129h-122v129z" />
    <glyph glyph-name="uni0930094D0902.aMatraI" horiz-adv-x="0" 
d="M36 775h101v-106h-101v106zM95 909v-103h-72q-23 0 -23 -20v-154h-170v170q0 57 30.5 82t109.5 25h125z" />
    <glyph glyph-name="uni09400930094D" 
d="M320 806h-74q-22 0 -29 -7t-7 -29v-128h60v-113h-60v-529h-170v529h-60v113h60v67q0 23 -7 29.5t-29 6.5h-38q-22 0 -29 -6.5t-7 -29.5v-33h-170v70q0 112 122 112h165q70 0 76 -47h5v20q0 88 96 88h96v-113z" />
    <glyph glyph-name="uni09400902" 
d="M247 812h122v-129h-122v129zM210 746v-104h60v-113h-60v-529h-170v529h-60v113h60v67q0 23 -7 29.5t-29 6.5h-38q-22 0 -29 -6.5t-7 -29.5v-33h-170v70q0 112 122 112h206q122 0 122 -112z" />
    <glyph glyph-name="uni09400930094D0902" 
d="M246 774h101v-106h-101v106zM210 770v-128h60v-113h-60v-529h-170v529h-60v113h60v67q0 23 -7 29.5t-29 6.5h-38q-22 0 -29 -6.5t-7 -29.5v-33h-170v70q0 112 122 112h165q70 0 76 -47h5v20q0 88 96 88h96v-113h-74q-22 0 -29 -7t-7 -29z" />
    <glyph glyph-name="uni0940.aLong" 
d="M270 642v-113h-60v-529h-170v529h-60v113h60v67q0 23 -7 29.5t-29 6.5h-232q-22 0 -29 -6.5t-7 -29.5v-33h-170v70q0 112 122 112h400q122 0 122 -112v-104h60z" />
    <glyph glyph-name="uni09400930094D.aLong" 
d="M320 806h-74q-22 0 -29 -7t-7 -29v-128h60v-113h-60v-529h-170v529h-60v113h60v67q0 23 -7 29.5t-29 6.5h-231q-23 0 -29.5 -6.5t-6.5 -29.5v-33h-170v70q0 112 122 112h358q70 0 76 -47h5v20q0 88 96 88h96v-113z" />
    <glyph glyph-name="uni09400902.aLong" 
d="M247 812h122v-129h-122v129zM210 746v-104h60v-113h-60v-529h-170v529h-60v113h60v67q0 23 -7 29.5t-29 6.5h-232q-22 0 -29 -6.5t-7 -29.5v-33h-170v70q0 112 122 112h400q122 0 122 -112z" />
    <glyph glyph-name="uni09400930094D0902.aLong" 
d="M246 774h101v-106h-101v106zM210 770v-128h60v-113h-60v-529h-170v529h-60v113h60v67q0 23 -7 29.5t-29 6.5h-231q-23 0 -29.5 -6.5t-6.5 -29.5v-33h-170v70q0 112 122 112h358q70 0 76 -47h5v20q0 88 96 88h96v-113h-74q-22 0 -29 -7t-7 -29z" />
    <glyph glyph-name="uni09470930094D" horiz-adv-x="0" 
d="M-145 705q-9 75 -9 118.5t30.5 69.5t89.5 26h66v-113h-40q-22 0 -29 -7t-7 -29v-131h-169q-128 85 -188 158l-38 46h212l32 -47q34 -51 46 -91h4z" />
    <glyph glyph-name="uni09470902" horiz-adv-x="0" 
d="M-88 846h122v-129h-122v129zM-187 843l143 -204h-164q-60 47 -124 129l-58 75h203z" />
    <glyph glyph-name="uni09470930094D0902" horiz-adv-x="0" 
d="M-145 705q-9 75 -9 118.5t30.5 69.5t89.5 26h66v-113h-40q-22 0 -29 -7t-7 -29v-131h-169q-128 85 -188 158l-38 46h212l32 -47q34 -51 46 -91h4zM-18 774h101v-106h-101v106z" />
    <glyph glyph-name="uni09480930094D" horiz-adv-x="0" 
d="M-110 767q0 72 77 72h66v-113h-40q-23 0 -29.5 -7t-6.5 -29v-51h-172q-76 38 -181 106l-152 98h200q144 -128 203 -187h5q-33 35 -149 187h154q21 -90 25 -118h4q-4 26 -4 42z" />
    <glyph glyph-name="uni09480902" horiz-adv-x="0" 
d="M-26 803h122v-129h-122v129zM-473 843h200q106 -138 138 -187h5q-24 42 -84 187h154l14 -204h-166q-65 40 -144 106z" />
    <glyph glyph-name="uni09480930094D0902" horiz-adv-x="0" 
d="M-12 773h101v-106h-101v106zM-111 847q0 72 80 72h66v-113h-40q-23 0 -29.5 -7t-6.5 -29v-131h-172q-76 38 -181 106l-152 98h200q144 -128 203 -187h5q-33 35 -149 187h154q21 -90 25 -118h4q-7 73 -7 122z" />
    <glyph glyph-name="uni094A0902" 
d="M229 851h122v-129h-122v129zM210 716v-74h60v-113h-60v-529h-170v529h-60v113h60v17q0 23 -7 29.5t-29 6.5h-117q-92 0 -92 92v64h170v-7q0 -23 7 -29.5t30 -6.5h116q92 0 92 -92z" />
    <glyph glyph-name="uni094B0930094D" 
d="M286 806h-40q-22 0 -29 -7t-7 -29v-128h60v-113h-60v-529h-170v529h-60v113h56q-124 83 -183 155l-38 46h212l32 -47q34 -51 46 -91h4q-9 75 -9 118.5t30.5 69.5t89.5 26h66v-113z" />
    <glyph glyph-name="uni094B0902" 
d="M168 846h122v-129h-122v129zM270 642v-113h-60v-529h-170v529h-60v113h64q-58 46 -120 126l-58 75h203l141 -201h60z" />
    <glyph glyph-name="uni094B0930094D0902" 
d="M236 774h101v-106h-101v106zM210 770v-128h60v-113h-60v-529h-170v529h-60v113h56q-124 83 -183 155l-38 46h212l32 -47q34 -51 46 -91h4q-9 75 -9 118.5t30.5 69.5t89.5 26h66v-113h-40q-22 0 -29 -7t-7 -29z" />
    <glyph glyph-name="uni094C0930094D" 
d="M286 726h-40q-22 0 -29 -7t-7 -29v-48h60v-113h-60v-529h-170v529h-60v113h52q-73 37 -175 103l-152 98h200q144 -128 203 -187h5q-33 35 -149 187h154q21 -90 25 -118h4q-4 26 -4 42q0 72 77 72h66v-113z" />
    <glyph glyph-name="uni094C0902" 
d="M230 803h122v-129h-122v129zM270 642v-113h-60v-529h-170v529h-60v113h59q-63 39 -139 103l-117 98h200q106 -138 138 -187h5q-24 42 -84 187h154l14 -201h60z" />
    <glyph glyph-name="uni094C0930094D0902" 
d="M239 773h101v-106h-101v106zM210 770v-128h60v-113h-60v-529h-170v529h-60v113h52q-73 37 -175 103l-152 98h200q144 -128 203 -187h5q-33 35 -149 187h154q21 -90 25 -118h4q-7 73 -7 122q0 72 80 72h66v-113h-40q-22 0 -29 -7t-7 -29z" />
    <glyph glyph-name="uni0915094D0937" horiz-adv-x="773" 
d="M793 642v-113h-60v-529h-170v248h-343q-25 0 -25 -24v-87q0 -24 25 -24h71q25 0 25 24v58h170v-257h-170v78q-15 -16 -53 -16h-131q-50 0 -78.5 27.5t-28.5 82.5v141q0 88 72 106q-19 18 -19 51v112q0 70 35.5 98.5t125.5 28.5h86q90 0 125.5 -28.5t35.5 -98.5v-134
q0 -14 -6 -25h83v281h230zM316 385v125q0 24 -25 24h-18q-25 0 -25 -24v-125q0 -24 25 -24h18q25 0 25 24z" />
    <glyph glyph-name="uni0915094D0937094D" horiz-adv-x="563" 
d="M596 248h-376q-25 0 -25 -24v-87q0 -24 25 -24h71q25 0 25 24v58h170v-257h-170v78q-15 -16 -53 -16h-131q-50 0 -78.5 27.5t-28.5 82.5v141q0 88 72 106q-19 18 -19 51v112q0 70 35.5 98.5t125.5 28.5h86q90 0 125.5 -28.5t35.5 -98.5v-134q0 -14 -6 -25h116v-113z
M248 510v-125q0 -24 25 -24h18q25 0 25 24v125q0 24 -25 24h-18q-25 0 -25 -24z" />
    <glyph glyph-name="uni0915094D0937094D092E" horiz-adv-x="1270" 
d="M1290 642v-113h-60v-529h-170v319h-78v-114q0 -70 -35.5 -98.5t-125.5 -28.5h-86q-90 0 -125.5 28.5t-35.5 98.5v43h-354q-25 0 -25 -24v-87q0 -24 25 -24h71q25 0 25 24v58h170v-257h-170v78q-15 -16 -53 -16h-131q-50 0 -78.5 27.5t-28.5 82.5v141q0 88 72 106
q-19 18 -19 51v112q0 70 35.5 98.5t125.5 28.5h86q90 0 125.5 -28.5t35.5 -98.5v-134q0 -14 -6 -25h97q8 37 40 54t97 17h98v97h-288v113h766zM316 385v125q0 24 -25 24h-18q-25 0 -25 -24v-125q0 -24 25 -24h18q25 0 25 24zM812 215v104h-63q-23 0 -23 -20v-84
q0 -24 25 -24h36q25 0 25 24zM1060 432v97h-78v-97h78z" />
    <glyph glyph-name="uni0915094D0937094D092E094D" horiz-adv-x="1096" 
d="M1136 529h-138v-97h138v-113h-138v-114q0 -70 -35.5 -98.5t-125.5 -28.5h-86q-90 0 -125.5 28.5t-35.5 98.5v43h-370q-25 0 -25 -24v-87q0 -24 25 -24h71q25 0 25 24v58h170v-257h-170v78q-15 -16 -53 -16h-131q-50 0 -78.5 27.5t-28.5 82.5v141q0 88 72 106
q-19 18 -19 51v112q0 70 35.5 98.5t125.5 28.5h86q90 0 125.5 -28.5t35.5 -98.5v-134q0 -14 -6 -25h113q8 37 40 54t97 17h98v97h-298v113h606v-113zM316 385v125q0 24 -25 24h-18q-25 0 -25 -24v-125q0 -24 25 -24h18q25 0 25 24zM828 215v104h-63q-23 0 -23 -20v-84
q0 -24 25 -24h36q25 0 25 24z" />
    <glyph glyph-name="uni0915094D0937094D092E094D092F" horiz-adv-x="1640" 
d="M1660 642v-113h-60v-529h-170v94q-16 -16 -49 -16h-168q-84 0 -122.5 29t-38.5 98v127h-70v-127q0 -70 -35.5 -98.5t-125.5 -28.5h-86q-90 0 -125.5 28.5t-35.5 98.5v43h-354q-25 0 -25 -24v-87q0 -24 25 -24h71q25 0 25 24v58h170v-257h-170v78q-15 -16 -53 -16h-131
q-50 0 -78.5 27.5t-28.5 82.5v141q0 88 72 106q-19 18 -19 51v112q0 70 35.5 98.5t125.5 28.5h86q90 0 125.5 -28.5t35.5 -98.5v-134q0 -14 -6 -25h95q5 44 36.5 64t102.5 20h98v84h-288v113h1136zM316 385v125q0 24 -25 24h-18q-25 0 -25 -24v-125q0 -24 25 -24h18
q25 0 25 24zM812 215v117h-45q-23 0 -23 -20v-97q0 -24 25 -24h18q25 0 25 24zM1200 465v30q0 19 -7 26.5t-27 7.5h-184v-84h195q23 0 23 20zM1430 225v304h-82q14 -17 14 -44v-36q0 -59 -29 -88t-106 -29h-5v-117q0 -24 23 -24h151q20 0 27 7.5t7 26.5z" />
    <glyph glyph-name="uni0915094D0937094D092F" horiz-adv-x="1149" 
d="M1169 642v-113h-60v-529h-170v94q-16 -16 -49 -16h-168q-84 0 -122.5 29t-38.5 98v67h-341q-25 0 -25 -24v-111q0 -24 25 -24h71q25 0 25 24v58h170v-257h-170v78q-15 -16 -53 -16h-131q-50 0 -78.5 27.5t-28.5 82.5v165q0 88 72 106q-19 18 -19 51v88q0 70 35.5 98.5
t125.5 28.5h86q90 0 125.5 -28.5t35.5 -98.5v-110q0 -14 -6 -25h206q23 0 23 20v90q0 19 -7.5 26.5t-26.5 7.5h-134v113h628zM316 409v101q0 24 -25 24h-18q-25 0 -25 -24v-101q0 -24 25 -24h18q25 0 25 24zM939 225v304h-82q14 -17 14 -44v-96q0 -59 -29 -88t-106 -29h-5
v-57q0 -24 23 -24h151q19 0 26.5 7.5t7.5 26.5z" />
    <glyph glyph-name="uni0915094D0937094D0935" horiz-adv-x="1032" 
d="M1036 642v-113h-60v-529h-170v94q-15 -16 -53 -16h-61q-66 0 -98.5 29.5t-32.5 97.5v43h-341q-25 0 -25 -24v-87q0 -24 25 -24h71q25 0 25 24v58h170v-257h-170v78q-15 -16 -53 -16h-131q-50 0 -78.5 27.5t-28.5 82.5v141q0 88 72 106q-19 18 -19 51v112q0 70 35.5 98.5
t125.5 28.5h86q90 0 125.5 -28.5t35.5 -98.5v-134q0 -14 -6 -25h81v4q0 57 30.5 82t109.5 25h64v-103h-11q-23 0 -23 -20v-134q0 -24 23 -24h29q23 0 23 24v314h-265v113h495zM316 385v125q0 24 -25 24h-18q-25 0 -25 -24v-125q0 -24 25 -24h18q25 0 25 24z" />
    <glyph glyph-name="uni091C094D091E" horiz-adv-x="720" 
d="M740 642v-113h-60v-529h-170v329h-74q6 -11 6 -25v-197q0 -57 -30.5 -82t-109.5 -25h-92v-62h-170v227h170v-62h39q23 0 23 20v186q0 20 -23 20h-182v113h443v87h-530v113h760z" />
    <glyph glyph-name="uni091C094D091E094D" horiz-adv-x="470" 
d="M-20 642h603v-113h-603v113zM67 329v113h516v-113h-147q6 -11 6 -25v-197q0 -57 -30.5 -82t-109.5 -25h-92v-62h-170v227h170v-62h39q23 0 23 20v186q0 20 -23 20h-182z" />
    <glyph glyph-name="uni091C094D091E094D092F" horiz-adv-x="1089" 
d="M1109 642v-113h-60v-529h-170v94q-16 -16 -49 -16h-168q-84 0 -122.5 29t-38.5 98v90h-65q6 -11 6 -25v-163q0 -57 -30.5 -82t-109.5 -25h-92v-62h-170v227h170v-62h39q23 0 23 20v152q0 20 -23 20h-182v113h559q23 0 23 20v67q0 19 -7.5 26.5t-26.5 7.5h-635v113h1129z
M879 225v304h-82q14 -17 14 -44v-73q0 -59 -29 -88t-106 -29h-5v-80q0 -24 23 -24h151q19 0 26.5 7.5t7.5 26.5z" />
    <glyph glyph-name="uni0915094D0928" horiz-adv-x="1188" 
d="M1208 642v-113h-60v-529h-170v329h-60v-124q0 -70 -35.5 -98.5t-125.5 -28.5h-86q-90 0 -125.5 28.5t-35.5 98.5v124h-52q-23 0 -23 -24v-305h-170v94q-15 -16 -53 -16h-61q-66 0 -98.5 29.5t-32.5 97.5v160q0 57 30.5 82t109.5 25h64v-103h-11q-23 0 -23 -20v-134
q0 -24 23 -24h29q23 0 23 24v314h-285v113h1228zM748 215v114h-45q-23 0 -23 -20v-94q0 -24 25 -24h18q25 0 25 24zM978 442v87h-543v-103q15 16 53 16h490z" />
    <glyph glyph-name="uni0916094D0928" horiz-adv-x="1399" 
d="M1419 642v-113h-60v-529h-170v359h-60v-154q0 -70 -35.5 -98.5t-125.5 -28.5h-86q-87 0 -123 27q-18 -27 -70 -27h-82q-66 0 -98.5 29.5t-32.5 97.5v160q0 57 30.5 82t109.5 25h64v-103h-11q-23 0 -23 -20v-134q0 -24 23 -24h29q23 0 23 24v150q0 57 30.5 82t109.5 25
h328v57h-762q6 -11 6 -25v-159q0 -63 -32.5 -89t-110.5 -26h-80v-83q0 -19 7.5 -26.5t26.5 -7.5h248v-113h-272q-95 0 -137.5 26.5t-42.5 88.5v357h170v-129h19q19 0 26.5 7.5t7.5 26.5v118q0 19 -7.5 26.5t-26.5 7.5h-249v113h1439zM959 215v144h-45q-23 0 -23 -20v-124
q0 -24 25 -24h18q25 0 25 24z" />
    <glyph glyph-name="uni0917094D0928" horiz-adv-x="1189" 
d="M1209 642v-113h-60v-529h-170v359h-60v-154q0 -70 -35.5 -98.5t-125.5 -28.5h-86q-90 0 -125.5 28.5t-35.5 98.5v160q0 57 30.5 82t109.5 25h328v57h-543v-324q0 -70 -35.5 -98.5t-125.5 -28.5h-86q-90 0 -125.5 28.5t-35.5 98.5v152q0 62 42.5 88.5t137.5 26.5h58v57
h-286v113h1229zM223 191h18q25 0 25 24v144h-37q-19 0 -25 -5.5t-6 -25.5v-113q0 -24 25 -24zM749 215v144h-45q-23 0 -23 -20v-124q0 -24 25 -24h18q25 0 25 24z" />
    <glyph glyph-name="uni0918094D0928" horiz-adv-x="990" 
d="M1020 642v-113h-60v-529h-170v359h-60v-154q0 -70 -35.5 -98.5t-125.5 -28.5h-86q-94 0 -130 32q-18 -32 -69 -32h-83q-84 0 -122.5 29t-38.5 98v96q0 50 47 56v5q-47 6 -47 56v86q0 14 6 25h-66v113h1040zM560 215v144h-45q-23 0 -23 -20v-124q0 -24 25 -24h18
q25 0 25 24zM790 472v57h-546q-20 0 -27 -7.5t-7 -26.5v-55q0 -24 23 -24h33v-113h-33q-23 0 -23 -24v-64q0 -24 23 -24h55q20 0 27 7.5t7 26.5v140q0 57 30.5 82t109.5 25h328z" />
    <glyph glyph-name="uni091A094D0928" horiz-adv-x="972" 
d="M992 642v-113h-60v-529h-170v359h-60v-154q0 -70 -35.5 -98.5t-125.5 -28.5h-86q-100 0 -133 36q-18 -36 -71 -36h-76q-66 0 -98.5 29.5t-32.5 97.5v100q0 35 17 54h-73v113h272v-113h-23q-23 0 -23 -24v-120q0 -24 23 -24h23q20 0 27 7.5t7 26.5v140q0 57 30.5 82
t109.5 25h328v57h-782v113h1012zM532 215v144h-45q-23 0 -23 -20v-124q0 -24 25 -24h18q25 0 25 24z" />
    <glyph glyph-name="uni091B094D0928" horiz-adv-x="701" 
d="M721 529h-162v-59q52 -5 77 -29t25 -76v-238q0 -63 -32.5 -92.5t-101.5 -33.5v-291h-120v119h-98q-23 0 -23 -24v-41l-120 1v57q0 59 28.5 83t86.5 24h126v71h-212q-84 0 -122.5 29t-38.5 98v131q0 50 47 56v5q-47 6 -47 56v129q0 14 6 25h-60v113h741v-113zM399 529
h-161q-20 0 -27 -7.5t-7 -26.5v-98q0 -24 23 -24h33v-113h-33q-23 0 -23 -24v-97q0 -24 23 -24h241q23 0 23 24v219q0 20 -23 20h-16q-23 0 -23 -20v-40q0 -20 23 -20h11v-93h-41q-60 0 -91.5 24t-31.5 83v53q0 51 24.5 75.5t75.5 29.5v59z" />
    <glyph glyph-name="uni091C094D0928" horiz-adv-x="1194" 
d="M1214 642v-113h-60v-529h-170v359h-60v-154q0 -70 -35.5 -98.5t-125.5 -28.5h-86q-90 0 -125.5 28.5t-35.5 98.5v154h-68v-154q0 -70 -35.5 -98.5t-125.5 -28.5h-86q-90 0 -125.5 28.5t-35.5 98.5v267h170v-257q0 -24 25 -24h18q25 0 25 24v257h706v57h-1004v113h1234z
M754 215v144h-45q-23 0 -23 -20v-124q0 -24 25 -24h18q25 0 25 24z" />
    <glyph glyph-name="uni091D094D0928" horiz-adv-x="1178" 
d="M1198 642v-113h-60v-529h-170v359h-60v-154q0 -70 -35.5 -98.5t-125.5 -28.5h-86q-89 0 -124.5 27.5t-36.5 96.5h-70q2 -14 2 -22v-73q0 -57 -30.5 -82t-109.5 -25h-92v-62h-170v227h170v-62h39q23 0 23 20v59q0 20 -23 20h-69q-79 0 -109.5 25t-30.5 82v56q0 57 30.5 82
t109.5 25h74v57h-264v113h1218zM738 215v144h-45q-23 0 -23 -20v-124q0 -24 25 -24h18q25 0 25 24zM968 472v57h-554v-160h-191q-23 0 -23 -20v-24q0 -20 23 -20h277v60q0 57 30.5 82t109.5 25h328z" />
    <glyph glyph-name="uni091F094D0928" horiz-adv-x="488" 
d="M508 642v-113h-60v-170h-213q-25 0 -25 -24v-198q0 -24 25 -24h18q25 0 25 24v102h170v-112q0 -65 -31 -95v-322h-120v119h-80q-23 0 -23 -24v-41l-120 1v57q0 59 28.5 83t86.5 24h108v71h-96q-90 0 -125.5 28.5t-35.5 98.5v238q0 57 30.5 82t109.5 25h98v57h-298v113
h528z" />
    <glyph glyph-name="uni0920094D0928" horiz-adv-x="488" 
d="M508 529h-179v-59q65 -6 92 -35t27 -90v-218q0 -80 -47 -106v-311h-120v119h-68q-23 0 -23 -24v-41l-120 1v57q0 59 28.5 83t86.5 24h96v71h-80q-90 0 -125.5 28.5t-35.5 98.5v218q0 61 27 90t92 35v59h-179v113h528v-113zM278 137v198q0 24 -25 24h-18q-25 0 -25 -24
v-198q0 -24 25 -24h18q25 0 25 24z" />
    <glyph glyph-name="uni0921094D0928" horiz-adv-x="470" 
d="M407 369h-180q-23 0 -23 -20v-23q0 -20 23 -20h63q79 0 109.5 -25t30.5 -82v-92q0 -60 -32 -83v-314h-120v119h-80q-23 0 -23 -24v-41l-120 1v57q0 59 28.5 83t86.5 24h108v71h-110q-79 0 -109.5 25t-30.5 82v52h170v-36q0 -20 17 -20h22q23 0 23 20v60q0 20 -23 20h-63
q-79 0 -109.5 25t-30.5 82v55q0 57 30.5 82t109.5 25h63v57h-257v113h510v-113h-83v-160z" />
    <glyph glyph-name="uni0924094D0928" horiz-adv-x="961" 
d="M981 642v-113h-60v-529h-170v359h-60v-154q0 -70 -35.5 -98.5t-125.5 -28.5h-86q-90 0 -125.5 28.5t-35.5 98.5v154h-50q-23 0 -23 -20v-206q0 -20 23 -20h11v-113h-64q-79 0 -109.5 25t-30.5 82v258q0 57 30.5 82t109.5 25h571v57h-771v113h1001zM521 215v144h-45
q-23 0 -23 -20v-124q0 -24 25 -24h18q25 0 25 24z" />
    <glyph glyph-name="uni0925094D0928" horiz-adv-x="1119" 
d="M1139 642v-113h-60v-529h-170v359h-60v-154q0 -70 -35.5 -98.5t-125.5 -28.5h-86q-87 0 -124 27q-13 -27 -56 -27h-211q-84 0 -122.5 29t-38.5 98v198h130q23 0 23 20v91q0 20 -23 20h-7q-23 0 -23 -20v-36h-90v63q0 55 31.5 80.5t98.5 25.5h53q67 0 98.5 -25.5
t31.5 -80.5v-134q0 -58 -31 -87.5t-109 -29.5h-13v-75q0 -24 23 -24h164q19 0 26.5 7.5t7.5 26.5v140q0 57 30.5 82t109.5 25h328v57h-468v113h698zM679 215v144h-45q-23 0 -23 -20v-124q0 -24 25 -24h18q25 0 25 24z" />
    <glyph glyph-name="uni0926094D0928" horiz-adv-x="474" 
d="M494 642v-113h-60v-170h-213q-25 0 -25 -24v-120q0 -24 23 -24h42q23 0 23 24v76h150v-505h-150v121h-70q-23 0 -23 -24v-41l-120 1v57q0 59 28.5 83t86.5 24h98v87q-15 -16 -53 -16h-44q-90 0 -125.5 28.5t-35.5 98.5v160q0 57 30.5 82t109.5 25h98v57h-298v113h528z
" />
    <glyph glyph-name="uni0927094D0928" horiz-adv-x="1081" 
d="M1101 642v-113h-60v-529h-170v359h-60v-154q0 -70 -35.5 -98.5t-125.5 -28.5h-86q-87 0 -124 27q-13 -27 -56 -27h-204q-67 0 -98.5 25.5t-31.5 80.5v104q0 50 47 56v5q-47 6 -47 56v136q0 55 31.5 80.5t98.5 25.5h53q67 0 98.5 -25.5t31.5 -80.5v-63h-90v36q0 20 -23 20
h-7q-23 0 -23 -20v-87q0 -24 23 -24h69v-113h-69q-23 0 -23 -24v-51q0 -24 23 -24h126q19 0 26.5 7.5t7.5 26.5v140q0 57 30.5 82t109.5 25h328v57h-468l-1 113h699zM641 215v144h-45q-23 0 -23 -20v-124q0 -24 25 -24h18q25 0 25 24z" />
    <glyph glyph-name="uni0928094D0928" horiz-adv-x="1184" 
d="M1204 642v-113h-60v-529h-170v359h-60v-154q0 -70 -35.5 -98.5t-125.5 -28.5h-86q-90 0 -125.5 28.5t-35.5 98.5v154h-68v-154q0 -70 -35.5 -98.5t-125.5 -28.5h-86q-90 0 -125.5 28.5t-35.5 98.5v160q0 57 30.5 82t109.5 25h804v57h-994v113h1224zM268 215v144h-45
q-23 0 -23 -20v-124q0 -24 25 -24h18q25 0 25 24zM744 215v144h-45q-23 0 -23 -20v-124q0 -24 25 -24h18q25 0 25 24z" />
    <glyph glyph-name="uni092A094D0928" horiz-adv-x="963" 
d="M983 642v-113h-60v-529h-170v359h-60v-154q0 -70 -35.5 -98.5t-125.5 -28.5h-86q-87 0 -124 27q-13 -27 -56 -27h-95q-66 0 -98.5 29.5t-32.5 97.5v324h-60v113h1003zM523 215v144h-45q-23 0 -23 -20v-124q0 -24 25 -24h18q25 0 25 24zM753 472v57h-543v-314
q0 -24 23 -24h18q19 0 26.5 7.5t7.5 26.5v140q0 57 30.5 82t109.5 25h328z" />
    <glyph glyph-name="uni092B094D0928" horiz-adv-x="1208" 
d="M1228 642v-113h-60v-529h-170v359h-60v-154q0 -70 -35.5 -98.5t-125.5 -28.5h-86q-90 0 -125.5 28.5t-35.5 98.5v154h-52q-23 0 -23 -24v-335h-170v94q-15 -16 -53 -16h-61q-66 0 -98.5 29.5t-32.5 97.5v324h-60v113h1248zM233 191h29q23 0 23 24v314h-75v-314
q0 -24 23 -24zM768 215v144h-45q-23 0 -23 -20v-124q0 -24 25 -24h18q25 0 25 24zM998 472v57h-543v-73q15 16 53 16h490z" />
    <glyph glyph-name="uni092C094D0928" horiz-adv-x="1045" 
d="M1065 642v-113h-60v-529h-170v359h-60v-154q0 -70 -35.5 -98.5t-125.5 -28.5h-86q-89 0 -125 28q-20 -28 -72 -28h-170q-66 0 -98.5 29.5t-32.5 97.5v160q0 57 30.5 82t109.5 25h155v-103h-72l120 -147q-6 33 -6 52v91q0 57 30.5 82t109.5 25h328v57h-855v113h1085z
M200 215q0 -24 23 -24h91q-77 93 -114 141v-117zM605 215v144h-45q-23 0 -23 -20v-124q0 -24 25 -24h18q25 0 25 24z" />
    <glyph glyph-name="uni092D094D0928" horiz-adv-x="1194" 
d="M1214 642v-113h-60v-529h-170v359h-60v-154q0 -70 -35.5 -98.5t-125.5 -28.5h-86q-90 0 -125.5 28.5t-35.5 98.5v102h-68v-102q0 -70 -35.5 -98.5t-125.5 -28.5h-86q-90 0 -125.5 28.5t-35.5 98.5v108q0 57 30.5 82t109.5 25h98v94q0 20 -23 20h-13q-23 0 -23 -20v-26
h-170v42q0 58 31 87.5t109 29.5h119q78 0 109 -29.5t31 -87.5v-110h78q22 52 130 52h328v57h-468v113h698zM278 215v92h-45q-23 0 -23 -20v-72q0 -24 25 -24h18q25 0 25 24zM754 215v144h-45q-23 0 -23 -20v-124q0 -24 25 -24h18q25 0 25 24z" />
    <glyph glyph-name="uni092E094D0928" horiz-adv-x="1200" 
d="M1220 642v-113h-60v-529h-170v359h-60v-154q0 -70 -35.5 -98.5t-125.5 -28.5h-86q-90 0 -125.5 28.5t-35.5 98.5v114h-74v-114q0 -70 -35.5 -98.5t-125.5 -28.5h-86q-90 0 -125.5 28.5t-35.5 98.5v120q0 57 30.5 82t109.5 25h98v97h-298v113h1240zM278 215v104h-63
q-23 0 -23 -20v-84q0 -24 25 -24h36q25 0 25 24zM760 215v144h-45q-23 0 -23 -20v-124q0 -24 25 -24h18q25 0 25 24zM990 472v57h-542v-97h90q28 40 124 40h328z" />
    <glyph glyph-name="uni092F094D0928" horiz-adv-x="1096" 
d="M1116 642v-113h-60v-529h-170v359h-60v-154q0 -70 -35.5 -98.5t-125.5 -28.5h-86q-87 0 -124 27q-13 -27 -56 -27h-198q-84 0 -122.5 29t-38.5 98v187h125q23 0 23 20v83q0 19 -7 26.5t-27 7.5h-174v113h1136zM656 215v144h-45q-23 0 -23 -20v-124q0 -24 25 -24h18
q25 0 25 24zM886 472v57h-550q14 -17 14 -44v-89q0 -59 -29 -88t-106 -29h-5v-64q0 -24 23 -24h151q20 0 27 7.5t7 26.5v140q0 57 30.5 82t109.5 25h328z" />
    <glyph glyph-name="uni0935094D0928" horiz-adv-x="963" 
d="M983 642v-113h-60v-529h-170v359h-60v-154q0 -70 -35.5 -98.5t-125.5 -28.5h-86q-100 0 -133 36q-18 -36 -71 -36h-71q-66 0 -98.5 29.5t-32.5 97.5v160q0 57 30.5 82t109.5 25h64v-113h-11q-23 0 -23 -20v-124q0 -24 23 -24h29q23 0 23 24v150q0 57 30.5 82t109.5 25
h328v57h-773v113h1003zM523 215v144h-45q-23 0 -23 -20v-124q0 -24 25 -24h18q25 0 25 24z" />
    <glyph glyph-name="uni0936094D0928" horiz-adv-x="1221" 
d="M1241 642v-113h-60v-529h-170v359h-60v-154q0 -70 -35.5 -98.5t-125.5 -28.5h-86q-90 0 -125.5 28.5t-35.5 98.5v160q0 57 30.5 82t109.5 25h328v57h-518v113h748zM781 215v144h-45q-23 0 -23 -20v-124q0 -24 25 -24h18q25 0 25 24zM200 647h113q78 0 109 -29.5t31 -87.5
v-182q0 -62 -42.5 -88.5t-137.5 -26.5h-43v-110q0 -20 23 -20h13q17 0 17 20v64h170v-80q0 -57 -30.5 -82t-109.5 -25h-113q-79 0 -109.5 25t-30.5 82v299h170v-60h19q19 0 26.5 7.5t7.5 26.5v134q0 20 -23 20h-13q-17 0 -17 -20v-49h-170v65q0 58 31 87.5t109 29.5z" />
    <glyph glyph-name="uni0938094D0928" horiz-adv-x="1164" 
d="M1184 642v-113h-60v-529h-170v359h-60v-154q0 -70 -35.5 -98.5t-125.5 -28.5h-86q-90 0 -125.5 28.5t-35.5 98.5v45h-276v-127q0 -20 23 -20h13q17 0 17 20v81h170v-97q0 -57 -30.5 -82t-109.5 -25h-113q-79 0 -109.5 25t-30.5 82v365h170v-109h19q19 0 26.5 7.5
t7.5 26.5v98q0 19 -7.5 26.5t-26.5 7.5h-249v113h1204zM724 215v144h-45q-23 0 -23 -20v-124q0 -24 25 -24h18q25 0 25 24zM954 472v57h-527q6 -11 6 -25v-116q0 -14 -6 -25h59v2q0 57 30.5 82t109.5 25h328z" />
    <glyph glyph-name="uni0939094D0928" horiz-adv-x="516" 
d="M431 369h-198q-23 0 -23 -18v-7q0 -18 23 -18h155q53 0 76.5 -21t23.5 -64v-121h-85v52h-41q-23 0 -23 -23v-20h-94v24q0 75 97 75h61v4q0 24 -25 24h-145q-23 0 -23 -24v-115q0 -24 23 -24h188v-93h-220q-84 0 -122.5 29t-38.5 98v74q0 50 47 56v5q-47 6 -47 56v47
q0 57 30.5 82t109.5 25h81v57h-281v113h556v-113h-105v-160z" />
    <glyph glyph-name="uni0915094D0930" horiz-adv-x="700" 
d="M720 529h-285v-73q15 16 53 16h61q66 0 98.5 -29.5t32.5 -97.5v-140q0 -57 -30.5 -82t-109.5 -25h-64v103h11q23 0 23 20v114q0 24 -23 24h-29q-23 0 -23 -24v-335h-170v97l-93 -157h-179l101 165q-74 21 -74 120v140q0 57 30.5 82t109.5 25h64v-103h-11q-23 0 -23 -20
v-114q0 -24 23 -24h29q23 0 23 24v294h-285v113h740v-113z" />
    <glyph glyph-name="uni0916094D0930" horiz-adv-x="931" 
d="M951 642v-113h-60v-529h-170v97l-93 -157h-179l101 165q-74 21 -74 120v140q0 57 30.5 82t109.5 25h64v-103h-11q-23 0 -23 -20v-114q0 -24 23 -24h29q23 0 23 24v294h-294q6 -11 6 -25v-159q0 -63 -32.5 -89t-110.5 -26h-80v-83q0 -19 7.5 -26.5t26.5 -7.5h218v-113
h-242q-95 0 -137.5 26.5t-42.5 88.5v357h170v-129h19q19 0 26.5 7.5t7.5 26.5v118q0 19 -7.5 26.5t-26.5 7.5h-249v113h971z" />
    <glyph glyph-name="uni0917094D0930" horiz-adv-x="725" 
d="M746 642v-113h-60v-529h-170v92l-170 -172h-160l330 332v277h-80v-244q0 -70 -35.5 -98.5t-125.5 -28.5h-86q-90 0 -125.5 28.5t-35.5 98.5v72q0 62 42.5 88.5t137.5 26.5h58v57h-286v113h766zM223 271h18q25 0 25 24v64h-37q-19 0 -25 -5.5t-6 -25.5v-33q0 -24 25 -24z
" />
    <glyph glyph-name="uni0918094D0930" horiz-adv-x="534" 
d="M554 642v-113h-60v-529h-170v97l-93 -157h-179l96 158q-108 1 -108 107v96q0 50 47 56v5q-47 6 -47 56v86q0 14 6 25h-66v113h574zM324 235v294h-80q-20 0 -27 -7.5t-7 -26.5v-55q0 -24 23 -24h33v-113h-33q-23 0 -23 -24v-44q0 -24 23 -24h68q23 0 23 24z" />
    <glyph glyph-name="uni0919094D0930" horiz-adv-x="558" 
d="M-20 642h598v-113h-171v-160h-180q-23 0 -23 -20v-23q0 -20 23 -20h63q79 0 109.5 -25t30.5 -82v-92q0 -48 -21 -72.5t-73 -31.5l94 -150h-139l-56 104l-58 -104h-139l95 148q-59 5 -82 30t-23 76v52h170v-36q0 -20 17 -20h22q23 0 23 20v60q0 20 -23 20h-63
q-79 0 -109.5 25t-30.5 82v55q0 57 30.5 82t109.5 25h63v57h-257v113zM434 284v129h122v-129h-122z" />
    <glyph glyph-name="uni091A094D0930" horiz-adv-x="499" 
d="M519 642v-113h-60v-529h-170v97l-93 -157h-179l99 162q-72 16 -72 103v100q0 35 17 54h-73v113h272v-113h-23q-23 0 -23 -24v-100q0 -24 23 -24h29q23 0 23 24v294h-311v113h541z" />
    <glyph glyph-name="uni091B094D0930" horiz-adv-x="701" 
d="M721 529h-162v-59q52 -5 77 -29t25 -76v-238q0 -69 -38.5 -98t-122.5 -29h-41l93 -147h-139l-56 104l-58 -104h-139l94 147h-59q-84 0 -122.5 29t-38.5 98v131q0 50 47 56v5q-47 6 -47 56v129q0 14 6 25h-60v113h741v-113zM399 529h-161q-20 0 -27 -7.5t-7 -26.5v-98
q0 -24 23 -24h33v-113h-33q-23 0 -23 -24v-97q0 -24 23 -24h241q23 0 23 24v219q0 20 -23 20h-16q-23 0 -23 -20v-40q0 -20 23 -20h11v-93h-41q-60 0 -91.5 24t-31.5 83v53q0 51 24.5 75.5t75.5 29.5v59z" />
    <glyph glyph-name="uni091C094D0930" horiz-adv-x="728" 
d="M748 642v-113h-60v-529h-170v82l-143 -142h-179l322 309v110h-70v-77q0 -70 -35.5 -98.5t-125.5 -28.5h-86q-90 0 -125.5 28.5t-35.5 98.5v190h170v-180q0 -24 25 -24h18q25 0 25 24v180h240v57h-538v113h768z" />
    <glyph glyph-name="uni091D094D0930" horiz-adv-x="712" 
d="M732 642v-113h-60v-529h-170v62l-136 -121h-149l285 241v80h-72q2 -12 2 -19v-40q0 -49 -30.5 -70.5t-109.5 -21.5h-92v-111h-170v232h170v-32h39q23 0 23 17v28q0 17 -23 17h-69q-79 0 -109.5 22t-30.5 71v41q0 49 30.5 70.5t109.5 21.5h74v41h-284v113h772zM503 351
v178h-89v-129h-191q-23 0 -23 -18v-14q0 -17 23 -17h280z" />
    <glyph glyph-name="uni091E094D0930" horiz-adv-x="716" 
d="M736 642v-113h-60v-529h-170v92l-170 -172h-160l297 299h-56q-14 -33 -49.5 -47t-100.5 -14h-86q-90 0 -125.5 28.5t-35.5 98.5v27h170v-17q0 -24 25 -24h18q25 0 25 24v44q0 20 -23 20h-102v113h155q78 0 109 -29.5t31 -87.5v-23h78v197h-526v113h756z" />
    <glyph glyph-name="uni091F094D0930" horiz-adv-x="488" 
d="M508 642v-113h-60v-170h-213q-25 0 -25 -24v-198q0 -24 25 -24h18q25 0 25 24v102h170v-112q0 -56 -22 -85t-75 -38l95 -151h-139l-56 104l-58 -104h-139l96 150q-60 7 -85 36t-25 88v238q0 57 30.5 82t109.5 25h98v57h-298v113h528z" />
    <glyph glyph-name="uni0920094D0930" horiz-adv-x="488" 
d="M508 529h-179v-59q65 -6 92 -35t27 -90v-218q0 -58 -23.5 -87t-79.5 -36l95 -151h-139l-56 104l-58 -104h-139l96 150q-56 8 -80 37t-24 87v218q0 61 27 90t92 35v59h-179v113h528v-113zM278 137v198q0 24 -25 24h-18q-25 0 -25 -24v-198q0 -24 25 -24h18q25 0 25 24z
" />
    <glyph glyph-name="uni0921094D0930" horiz-adv-x="470" 
d="M407 369h-180q-23 0 -23 -20v-23q0 -20 23 -20h63q79 0 109.5 -25t30.5 -82v-92q0 -49 -21 -73.5t-75 -31.5l94 -149h-139l-56 104l-58 -104h-139l95 149q-57 5 -80 30t-23 75v52h170v-36q0 -20 17 -20h22q23 0 23 20v60q0 20 -23 20h-63q-79 0 -109.5 25t-30.5 82v55
q0 57 30.5 82t109.5 25h63v57h-257v113h510v-113h-83v-160z" />
    <glyph glyph-name="uni0922094D0930" horiz-adv-x="517" 
d="M448 359h-213q-25 0 -25 -24v-198q0 -24 25 -24h57q25 0 25 24v30q0 24 -25 24h-44v113h78q90 0 125.5 -28.5t35.5 -98.5v-50q0 -61 -26.5 -90t-90.5 -35l94 -149h-139l-56 104l-58 -104h-139l95 148q-70 5 -98.5 34t-28.5 92v238q0 57 30.5 82t109.5 25h98v57h-298v113
h557v-113h-89v-170z" />
    <glyph glyph-name="uni0923094D0930" horiz-adv-x="726" 
d="M746 642v-113h-60v-529h-170v92l-170 -172h-160l330 332v277h-68v-234q0 -70 -35.5 -98.5t-125.5 -28.5h-86q-90 0 -125.5 28.5t-35.5 98.5v234h-60v113h766zM278 305v224h-68v-224q0 -24 25 -24h18q25 0 25 24z" />
    <glyph glyph-name="uni0924094D0930" horiz-adv-x="554" 
d="M574 642v-113h-60v-529h-170v181h-20l-102 -181h-195l130 231l-52 76q-19 28 -34 37.5t-41 9.5h-15v113h104q48 0 76 -15.5t53 -51.5l81 -119h15v248h-364v113h594z" />
    <glyph glyph-name="uni0925094D0930" horiz-adv-x="651" 
d="M671 642v-113h-60v-529h-170v97l-93 -157h-179l96 158h-104q-57 0 -84 26t-27 81v198h130q23 0 23 20v91q0 20 -23 20h-7q-23 0 -23 -20v-36h-90v63q0 55 31.5 80.5t98.5 25.5h53q67 0 98.5 -25.5t31.5 -80.5v-134q0 -58 -31 -87.5t-109 -29.5h-13v-55q0 -24 23 -24h175
q23 0 23 24v294l-1 113h231z" />
    <glyph glyph-name="uni0926094D0930" horiz-adv-x="474" 
d="M494 642v-113h-60v-170h-213q-25 0 -25 -24v-100q0 -24 23 -24h22q23 0 23 24v56h170v-291h-170v97l-93 -157h-179l100 163q-66 18 -66 102v160q0 57 30.5 82t109.5 25h98v57h-298v113h528z" />
    <glyph glyph-name="uni0927094D0930" horiz-adv-x="606" 
d="M633 642v-113h-60v-529h-170v97l-93 -157h-179l96 158h-66q-57 0 -84 26t-27 81v89q0 50 47 56v5q-47 6 -47 56v130q0 55 31.5 80.5t98.5 25.5h53q67 0 98.5 -25.5t31.5 -80.5v-63h-90v36q0 20 -23 20h-7q-23 0 -23 -20v-81q0 -24 23 -24h69v-113h-69q-23 0 -23 -24v-37
q0 -24 23 -24h137q23 0 23 24v294l-1 113h231z" />
    <glyph glyph-name="uni0928094D0930" horiz-adv-x="726" 
d="M728 642v-113h-60v-529h-170v92l-170 -172h-160l330 332v107h-60v-62q0 -70 -35.5 -98.5t-125.5 -28.5h-86q-90 0 -125.5 28.5t-35.5 98.5v68q0 57 30.5 82t109.5 25h328v57h-518v113h748zM268 307v52h-45q-23 0 -23 -20v-32q0 -24 25 -24h18q25 0 25 24z" />
    <glyph glyph-name="uni092A094D0930" horiz-adv-x="495" 
d="M515 642v-113h-60v-529h-170v97l-93 -157h-179l101 165q-74 21 -74 120v304h-60v113h535zM285 235v294h-75v-294q0 -24 23 -24h29q23 0 23 24z" />
    <glyph glyph-name="uni092B094D0930" horiz-adv-x="720" 
d="M740 529h-285v-73q15 16 53 16h61q66 0 98.5 -29.5t32.5 -97.5v-160q0 -57 -30.5 -82t-109.5 -25h-64v103h11q23 0 23 20v134q0 24 -23 24h-29q-23 0 -23 -24v-335h-170v97l-93 -157h-179l99 162q-72 16 -72 103v324h-60v113h760v-113zM285 235v294h-75v-294
q0 -24 23 -24h29q23 0 23 24z" />
    <glyph glyph-name="uni092C094D0930" horiz-adv-x="577" 
d="M597 642v-113h-60v-529h-170v94l-91 -154h-179l84 138h-20q-66 0 -98.5 29.5t-32.5 97.5v160q0 57 30.5 82t109.5 25h155v-103h-72l120 -147q-6 14 -6 103v204h-387v113h617zM223 191h81q6 0 8 3q-72 86 -112 138v-117q0 -24 23 -24z" />
    <glyph glyph-name="uni092D094D0930" horiz-adv-x="736" 
d="M756 642v-113h-60v-529h-170v92l-170 -172h-160l330 332v82h-78v-54q0 -70 -35.5 -98.5t-125.5 -28.5h-86q-90 0 -125.5 28.5t-35.5 98.5v60q0 57 30.5 82t109.5 25h98v67q0 20 -23 20h-13q-23 0 -23 -20v-26h-170v42q0 58 31 87.5t109 29.5h119q78 0 109 -29.5t31 -87.5
v-83h78v195h230zM278 290v44h-45q-23 0 -23 -20v-24q0 -24 25 -24h18q25 0 25 24z" />
    <glyph glyph-name="uni092E094D0930" horiz-adv-x="726" 
d="M746 642v-113h-60v-529h-170v92l-170 -172h-160l330 332v82h-78v-54q0 -70 -35.5 -98.5t-125.5 -28.5h-86q-90 0 -125.5 28.5t-35.5 98.5v60q0 57 30.5 82t109.5 25h98v82h-288v113h766zM268 290v44h-63q-23 0 -23 -20v-24q0 -24 25 -24h36q25 0 25 24zM516 447v82h-78
v-82h78z" />
    <glyph glyph-name="uni092F094D0930" horiz-adv-x="628" 
d="M648 642v-113h-60v-529h-170v97l-93 -157h-179l96 158h-91q-57 0 -84 26t-27 81v187h125q23 0 23 20v83q0 19 -7 26.5t-27 7.5h-174v113h668zM418 235v294h-82q14 -17 14 -44v-89q0 -59 -29 -88t-106 -29h-5v-44q0 -24 23 -24h162q23 0 23 24z" />
    <glyph glyph-name="uni0935094D0930" horiz-adv-x="495" 
d="M515 642v-113h-60v-529h-170v97l-93 -157h-179l99 162q-72 16 -72 103v160q0 57 30.5 82t109.5 25h64v-113h-11q-23 0 -23 -20v-104q0 -24 23 -24h29q23 0 23 24v294h-305v113h535z" />
    <glyph glyph-name="uni0936094D0930" horiz-adv-x="734" 
d="M524 642h230v-113h-60v-529h-170v141l-98 -95h-182l254 245h-117l-157 -143h-194l160 143q-79 3 -111 32t-32 95v97q0 70 35.5 98.5t125.5 28.5h80q90 0 125.5 -28.5t35.5 -98.5v-99q0 -14 -6 -25h81v251zM217 521v-110q0 -20 23 -20h16q23 0 23 20v110q0 20 -23 20h-16
q-23 0 -23 -20z" />
    <glyph glyph-name="uni0938094D0930" horiz-adv-x="707" 
d="M727 642v-113h-60v-529h-170v231l-75 -80h-173l130 112h-169v-140q0 -20 23 -20h200v-103h-253q-79 0 -109.5 25t-30.5 82v365h170v-109h19q19 0 26.5 7.5t7.5 26.5v98q0 19 -7.5 26.5t-26.5 7.5h-249v113h747zM497 363v166h-70q6 -11 6 -25v-116q0 -14 -6 -25h70z" />
    <glyph glyph-name="uni0939094D0930" horiz-adv-x="516" 
d="M431 369h-198q-23 0 -23 -18v-7q0 -18 23 -18h155q53 0 76.5 -21t23.5 -64v-99h-85v90q0 17 -12 22l-63 -111h-90l64 113h-69q-23 0 -23 -24v-115q0 -24 23 -24h198v-93h-230q-84 0 -122.5 29t-38.5 98v74q0 50 47 56v5q-47 6 -47 56v47q0 57 30.5 82t109.5 25h81v57
h-281v113h556v-113h-105v-160z" />
    <glyph glyph-name="uni0915093C094D0930" horiz-adv-x="700" 
d="M720 529h-285v-73q15 16 53 16h61q66 0 98.5 -29.5t32.5 -97.5v-140q0 -57 -30.5 -82t-109.5 -25h-64v103h11q23 0 23 20v114q0 24 -23 24h-29q-23 0 -23 -24v-335h-170v97l-93 -157h-179l101 165q-74 21 -74 120v140q0 57 30.5 82t109.5 25h64v-103h-11q-23 0 -23 -20
v-114q0 -24 23 -24h29q23 0 23 24v294h-285v113h740v-113zM226 -179v129h122v-129h-122z" />
    <glyph glyph-name="uni0916093C094D0930" horiz-adv-x="931" 
d="M951 642v-113h-60v-529h-170v97l-93 -157h-179l101 165q-74 21 -74 120v140q0 57 30.5 82t109.5 25h64v-103h-11q-23 0 -23 -20v-114q0 -24 23 -24h29q23 0 23 24v294h-294q6 -11 6 -25v-159q0 -63 -32.5 -89t-110.5 -26h-80v-83q0 -19 7.5 -26.5t26.5 -7.5h218v-113
h-242q-95 0 -137.5 26.5t-42.5 88.5v357h170v-129h19q19 0 26.5 7.5t7.5 26.5v118q0 19 -7.5 26.5t-26.5 7.5h-249v113h971zM687 -179v129h122v-129h-122z" />
    <glyph glyph-name="uni0917093C094D0930" horiz-adv-x="725" 
d="M746 642v-113h-60v-529h-170v92l-170 -172h-160l330 332v277h-80v-244q0 -70 -35.5 -98.5t-125.5 -28.5h-86q-90 0 -125.5 28.5t-35.5 98.5v72q0 62 42.5 88.5t137.5 26.5h58v57h-286v113h766zM223 271h18q25 0 25 24v64h-37q-19 0 -25 -5.5t-6 -25.5v-33q0 -24 25 -24z
M436 -179v129h122v-129h-122z" />
    <glyph glyph-name="uni0918093C094D0930" horiz-adv-x="534" 
d="M554 642v-113h-60v-529h-170v97l-93 -157h-179l96 158q-108 1 -108 107v96q0 50 47 56v5q-47 6 -47 56v86q0 14 6 25h-66v113h574zM324 235v294h-80q-20 0 -27 -7.5t-7 -26.5v-55q0 -24 23 -24h33v-113h-33q-23 0 -23 -24v-44q0 -24 23 -24h68q23 0 23 24zM295 -179v129
h122v-129h-122z" />
    <glyph glyph-name="uni0919093C094D0930" horiz-adv-x="558" 
d="M-20 642h598v-113h-171v-160h-180q-23 0 -23 -20v-23q0 -20 23 -20h63q79 0 109.5 -25t30.5 -82v-92q0 -48 -21 -72.5t-73 -31.5l94 -150h-139l-56 104l-58 -104h-139l95 148q-59 5 -82 30t-23 76v52h170v-36q0 -20 17 -20h22q23 0 23 20v60q0 20 -23 20h-63
q-79 0 -109.5 25t-30.5 82v55q0 57 30.5 82t109.5 25h63v57h-257v113zM434 284v129h122v-129h-122zM173 -290v129h122v-129h-122z" />
    <glyph glyph-name="uni091A093C094D0930" horiz-adv-x="499" 
d="M519 642v-113h-60v-529h-170v97l-93 -157h-179l99 162q-72 16 -72 103v100q0 35 17 54h-73v113h272v-113h-23q-23 0 -23 -24v-100q0 -24 23 -24h29q23 0 23 24v294h-311v113h541zM246 -179v129h122v-129h-122z" />
    <glyph glyph-name="uni091B093C094D0930" horiz-adv-x="701" 
d="M721 529h-162v-59q52 -5 77 -29t25 -76v-238q0 -69 -38.5 -98t-122.5 -29h-41l93 -147h-139l-56 104l-58 -104h-139l94 147h-59q-84 0 -122.5 29t-38.5 98v131q0 50 47 56v5q-47 6 -47 56v129q0 14 6 25h-60v113h741v-113zM399 529h-161q-20 0 -27 -7.5t-7 -26.5v-98
q0 -24 23 -24h33v-113h-33q-23 0 -23 -24v-97q0 -24 23 -24h241q23 0 23 24v219q0 20 -23 20h-16q-23 0 -23 -20v-40q0 -20 23 -20h11v-93h-41q-60 0 -91.5 24t-31.5 83v53q0 51 24.5 75.5t75.5 29.5v59zM292 -287v129h122v-129h-122z" />
    <glyph glyph-name="uni091C093C094D0930" horiz-adv-x="728" 
d="M748 642v-113h-60v-529h-170v82l-143 -142h-179l322 309v110h-70v-77q0 -70 -35.5 -98.5t-125.5 -28.5h-86q-90 0 -125.5 28.5t-35.5 98.5v190h170v-180q0 -24 25 -24h18q25 0 25 24v180h240v57h-538v113h768zM456 -179v129h122v-129h-122z" />
    <glyph glyph-name="uni091D093C094D0930" horiz-adv-x="712" 
d="M732 642v-113h-60v-529h-170v62l-136 -121h-149l285 241v80h-72q2 -12 2 -19v-40q0 -49 -30.5 -70.5t-109.5 -21.5h-92v-111h-170v232h170v-32h39q23 0 23 17v28q0 17 -23 17h-69q-79 0 -109.5 22t-30.5 71v41q0 49 30.5 70.5t109.5 21.5h74v41h-284v113h772zM503 351
v178h-89v-129h-191q-23 0 -23 -18v-14q0 -17 23 -17h280zM436 -179v129h122v-129h-122z" />
    <glyph glyph-name="uni091E093C094D0930" horiz-adv-x="716" 
d="M736 642v-113h-60v-529h-170v92l-170 -172h-160l297 299h-56q-14 -33 -49.5 -47t-100.5 -14h-86q-90 0 -125.5 28.5t-35.5 98.5v27h170v-17q0 -24 25 -24h18q25 0 25 24v44q0 20 -23 20h-102v113h155q78 0 109 -29.5t31 -87.5v-23h78v197h-526v113h756zM416 -179v129h122
v-129h-122z" />
    <glyph glyph-name="uni091F093C094D0930" horiz-adv-x="488" 
d="M508 642v-113h-60v-170h-213q-25 0 -25 -24v-198q0 -24 25 -24h18q25 0 25 24v102h170v-112q0 -56 -22 -85t-75 -38l95 -151h-139l-56 104l-58 -104h-139l96 150q-60 7 -85 36t-25 88v238q0 57 30.5 82t109.5 25h98v57h-298v113h528zM188 -290v129h122v-129h-122z" />
    <glyph glyph-name="uni0920093C094D0930" horiz-adv-x="488" 
d="M508 529h-179v-59q65 -6 92 -35t27 -90v-218q0 -58 -23.5 -87t-79.5 -36l95 -151h-139l-56 104l-58 -104h-139l96 150q-56 8 -80 37t-24 87v218q0 61 27 90t92 35v59h-179v113h528v-113zM278 137v198q0 24 -25 24h-18q-25 0 -25 -24v-198q0 -24 25 -24h18q25 0 25 24z
M184 -288v129h122v-129h-122z" />
    <glyph glyph-name="uni0921093C094D0930" horiz-adv-x="470" 
d="M407 369h-180q-23 0 -23 -20v-23q0 -20 23 -20h63q79 0 109.5 -25t30.5 -82v-92q0 -49 -21 -73.5t-75 -31.5l94 -149h-139l-56 104l-58 -104h-139l95 149q-57 5 -80 30t-23 75v52h170v-36q0 -20 17 -20h22q23 0 23 20v60q0 20 -23 20h-63q-79 0 -109.5 25t-30.5 82v55
q0 57 30.5 82t109.5 25h63v57h-257v113h510v-113h-83v-160zM172 -288v129h122v-129h-122z" />
    <glyph glyph-name="uni0922093C094D0930" horiz-adv-x="517" 
d="M448 359h-213q-25 0 -25 -24v-198q0 -24 25 -24h57q25 0 25 24v30q0 24 -25 24h-44v113h78q90 0 125.5 -28.5t35.5 -98.5v-50q0 -61 -26.5 -90t-90.5 -35l94 -149h-139l-56 104l-58 -104h-139l95 148q-70 5 -98.5 34t-28.5 92v238q0 57 30.5 82t109.5 25h98v57h-298v113
h557v-113h-89v-170zM208 -291v129h122v-129h-122z" />
    <glyph glyph-name="uni0923093C094D0930" horiz-adv-x="726" 
d="M746 642v-113h-60v-529h-170v92l-170 -172h-160l330 332v277h-68v-234q0 -70 -35.5 -98.5t-125.5 -28.5h-86q-90 0 -125.5 28.5t-35.5 98.5v234h-60v113h766zM278 305v224h-68v-224q0 -24 25 -24h18q25 0 25 24zM436 -179v129h122v-129h-122z" />
    <glyph glyph-name="uni0924093C094D0930" horiz-adv-x="554" 
d="M574 642v-113h-60v-529h-170v181h-20l-102 -181h-195l130 231l-52 76q-19 28 -34 37.5t-41 9.5h-15v113h104q48 0 76 -15.5t53 -51.5l81 -119h15v248h-364v113h594zM236 -179v129h122v-129h-122z" />
    <glyph glyph-name="uni0925093C094D0930" horiz-adv-x="651" 
d="M671 642v-113h-60v-529h-170v97l-93 -157h-179l96 158h-104q-57 0 -84 26t-27 81v198h130q23 0 23 20v91q0 20 -23 20h-7q-23 0 -23 -20v-36h-90v63q0 55 31.5 80.5t98.5 25.5h53q67 0 98.5 -25.5t31.5 -80.5v-134q0 -58 -31 -87.5t-109 -29.5h-13v-55q0 -24 23 -24h175
q23 0 23 24v294l-1 113h231zM416 -179v129h122v-129h-122z" />
    <glyph glyph-name="uni0926093C094D0930" horiz-adv-x="474" 
d="M494 642v-113h-60v-170h-213q-25 0 -25 -24v-100q0 -24 23 -24h22q23 0 23 24v56h170v-291h-170v97l-93 -157h-179l100 163q-66 18 -66 102v160q0 57 30.5 82t109.5 25h98v57h-298v113h528zM226 -179v129h122v-129h-122z" />
    <glyph glyph-name="uni0927093C094D0930" horiz-adv-x="606" 
d="M633 642v-113h-60v-529h-170v97l-93 -157h-179l96 158h-66q-57 0 -84 26t-27 81v89q0 50 47 56v5q-47 6 -47 56v130q0 55 31.5 80.5t98.5 25.5h53q67 0 98.5 -25.5t31.5 -80.5v-63h-90v36q0 20 -23 20h-7q-23 0 -23 -20v-81q0 -24 23 -24h69v-113h-69q-23 0 -23 -24v-37
q0 -24 23 -24h137q23 0 23 24v294l-1 113h231zM366 -179v129h122v-129h-122z" />
    <glyph glyph-name="uni0928093C094D0930" horiz-adv-x="726" 
d="M728 642v-113h-60v-529h-170v92l-170 -172h-160l330 332v107h-60v-62q0 -70 -35.5 -98.5t-125.5 -28.5h-86q-90 0 -125.5 28.5t-35.5 98.5v68q0 57 30.5 82t109.5 25h328v57h-518v113h748zM268 307v52h-45q-23 0 -23 -20v-32q0 -24 25 -24h18q25 0 25 24zM426 -179v129
h122v-129h-122z" />
    <glyph glyph-name="uni092A093C094D0930" horiz-adv-x="495" 
d="M515 642v-113h-60v-529h-170v97l-93 -157h-179l101 165q-74 21 -74 120v304h-60v113h535zM285 235v294h-75v-294q0 -24 23 -24h29q23 0 23 24zM249 -165v129h122v-129h-122z" />
    <glyph glyph-name="uni092B093C094D0930" horiz-adv-x="720" 
d="M740 529h-285v-73q15 16 53 16h61q66 0 98.5 -29.5t32.5 -97.5v-160q0 -57 -30.5 -82t-109.5 -25h-64v103h11q23 0 23 20v134q0 24 -23 24h-29q-23 0 -23 -24v-335h-170v97l-93 -157h-179l99 162q-72 16 -72 103v324h-60v113h760v-113zM285 235v294h-75v-294
q0 -24 23 -24h29q23 0 23 24zM246 -179v129h122v-129h-122z" />
    <glyph glyph-name="uni092C093C094D0930" horiz-adv-x="577" 
d="M597 642v-113h-60v-529h-170v94l-91 -154h-179l84 138h-20q-66 0 -98.5 29.5t-32.5 97.5v160q0 57 30.5 82t109.5 25h155v-103h-72l120 -147q-6 14 -6 103v204h-387v113h617zM223 191h81q6 0 8 3q-72 86 -112 138v-117q0 -24 23 -24zM326 -179v129h122v-129h-122z" />
    <glyph glyph-name="uni092D093C094D0930" horiz-adv-x="736" 
d="M756 642v-113h-60v-529h-170v92l-170 -172h-160l330 332v82h-78v-54q0 -70 -35.5 -98.5t-125.5 -28.5h-86q-90 0 -125.5 28.5t-35.5 98.5v60q0 57 30.5 82t109.5 25h98v67q0 20 -23 20h-13q-23 0 -23 -20v-26h-170v42q0 58 31 87.5t109 29.5h119q78 0 109 -29.5t31 -87.5
v-83h78v195h230zM278 290v44h-45q-23 0 -23 -20v-24q0 -24 25 -24h18q25 0 25 24zM436 -179v129h122v-129h-122z" />
    <glyph glyph-name="uni092E093C094D0930" horiz-adv-x="726" 
d="M746 642v-113h-60v-529h-170v92l-170 -172h-160l330 332v82h-78v-54q0 -70 -35.5 -98.5t-125.5 -28.5h-86q-90 0 -125.5 28.5t-35.5 98.5v60q0 57 30.5 82t109.5 25h98v82h-288v113h766zM268 290v44h-63q-23 0 -23 -20v-24q0 -24 25 -24h36q25 0 25 24zM516 447v82h-78
v-82h78zM436 -179v129h122v-129h-122z" />
    <glyph glyph-name="uni092F093C094D0930" horiz-adv-x="628" 
d="M648 642v-113h-60v-529h-170v97l-93 -157h-179l96 158h-91q-57 0 -84 26t-27 81v187h125q23 0 23 20v83q0 19 -7 26.5t-27 7.5h-174v113h668zM418 235v294h-82q14 -17 14 -44v-89q0 -59 -29 -88t-106 -29h-5v-44q0 -24 23 -24h162q23 0 23 24zM384 -179v129h122v-129
h-122z" />
    <glyph glyph-name="uni0935093C094D0930" horiz-adv-x="495" 
d="M515 642v-113h-60v-529h-170v97l-93 -157h-179l99 162q-72 16 -72 103v160q0 57 30.5 82t109.5 25h64v-113h-11q-23 0 -23 -20v-104q0 -24 23 -24h29q23 0 23 24v294h-305v113h535zM246 -179v129h122v-129h-122z" />
    <glyph glyph-name="uni0915094D0930094D" horiz-adv-x="572" 
d="M612 529h-177v-103q15 16 53 16h124v-113h-154q-23 0 -23 -24v-305h-170v97l-93 -157h-179l101 165q-74 21 -74 120v140q0 57 30.5 82t109.5 25h64v-103h-11q-23 0 -23 -20v-114q0 -24 23 -24h29q23 0 23 24v294h-285v113h632v-113z" />
    <glyph glyph-name="uni0916094D0930094D" horiz-adv-x="720" 
d="M-20 642h770v-113h-323q6 -11 6 -25v-159q0 -63 -32.5 -89t-110.5 -26h-80v-83q0 -19 7.5 -26.5t26.5 -7.5h218v-113h-242q-95 0 -137.5 26.5t-42.5 88.5v357h170v-129h19q19 0 26.5 7.5t7.5 26.5v118q0 19 -7.5 26.5t-26.5 7.5h-249v113zM646 349v-114q0 -24 23 -24h81
v-65l-122 -206h-179l101 165q-74 21 -74 120v140q0 57 30.5 82t109.5 25h64v-103h-11q-23 0 -23 -20z" />
    <glyph glyph-name="uni0917094D0930094D" horiz-adv-x="600" 
d="M-20 642h584v-113h-128v-244q0 -70 -35.5 -98.5t-125.5 -28.5h-86q-90 0 -125.5 28.5t-35.5 98.5v72q0 62 42.5 88.5t137.5 26.5h58v57h-286v113zM223 271h18q25 0 25 24v64h-37q-19 0 -25 -5.5t-6 -25.5v-33q0 -24 25 -24zM346 -80h-160l378 380v-161z" />
    <glyph glyph-name="uni0918094D0930094D" horiz-adv-x="334" 
d="M354 529h-110q-20 0 -27 -7.5t-7 -26.5v-55q0 -24 23 -24h33v-113h-33q-23 0 -23 -24v-44q0 -24 23 -24h121v-65l-122 -206h-179l96 158q-56 1 -82.5 27t-26.5 80v96q0 50 47 56v5q-47 6 -47 56v86q0 14 6 25h-66v113h374v-113z" />
    <glyph glyph-name="uni091A094D0930094D" horiz-adv-x="298" 
d="M-22 642h340v-113h-340v113zM214 335v-100q0 -24 23 -24h81v-65l-122 -206h-179l99 162q-72 16 -72 103v100q0 35 17 54h-73v113h272v-113h-23q-23 0 -23 -24z" />
    <glyph glyph-name="uni091C094D0930094D" horiz-adv-x="568" 
d="M588 316v-165l-213 -211h-179zM40 472h170v-180q0 -24 25 -24h18q25 0 25 24v180h310v-113h-140v-77q0 -70 -35.5 -98.5t-125.5 -28.5h-86q-90 0 -125.5 28.5t-35.5 98.5v190zM-20 642h608v-113h-608v113z" />
    <glyph glyph-name="uni091D094D0930094D" horiz-adv-x="586" 
d="M414 369h-191q-23 0 -23 -20v-24q0 -20 23 -20h393v-103h-186q2 -14 2 -22v-73q0 -57 -30.5 -82t-109.5 -25h-92v-62h-170v227h170v-62h39q23 0 23 20v59q0 20 -23 20h-69q-79 0 -109.5 25t-30.5 82v56q0 57 30.5 82t109.5 25h74v57h-264v113h636v-113h-202v-160z
M439 -147h-163l340 326v-151z" />
    <glyph glyph-name="uni091E094D0930094D" horiz-adv-x="526" 
d="M-20 642h576v-113h-576v113zM428 355v-23h128v-113h-128v-14q0 -70 -35.5 -98.5t-125.5 -28.5h-86q-90 0 -125.5 28.5t-35.5 98.5v64h170v-54q0 -24 25 -24h18q25 0 25 24v124q0 20 -23 20h-102v113h155q78 0 109 -29.5t31 -87.5zM379 -147h-163l340 326v-151z" />
    <glyph glyph-name="uni091F094D0930094D" horiz-adv-x="488" 
d="M508 642v-113h-60v-170h-213q-25 0 -25 -24v-198q0 -24 25 -24h18q25 0 25 24v102h170v-112q0 -56 -22 -85t-75 -38l95 -151h-139l-56 104l-58 -104h-139l96 150q-60 7 -85 36t-25 88v238q0 57 30.5 82t109.5 25h98v57h-298v113h528zM147 -171h166l130 -150h-166z" />
    <glyph glyph-name="uni0920094D0930094D" horiz-adv-x="488" 
d="M508 529h-179v-59q65 -6 92 -35t27 -90v-218q0 -58 -23.5 -87t-79.5 -36l95 -151h-139l-56 104l-58 -104h-139l96 150q-56 8 -80 37t-24 87v218q0 61 27 90t92 35v59h-179v113h528v-113zM278 137v198q0 24 -25 24h-18q-25 0 -25 -24v-198q0 -24 25 -24h18q25 0 25 24z
M147 -171h166l130 -150h-166z" />
    <glyph glyph-name="uni0921094D0930094D" horiz-adv-x="470" 
d="M-20 642h510v-113h-83v-160h-180q-23 0 -23 -20v-23q0 -20 23 -20h63q79 0 109.5 -25t30.5 -82v-92q0 -49 -21 -73.5t-75 -31.5l94 -149h-139l-56 104l-58 -104h-139l95 149q-57 5 -80 30t-23 75v52h170v-36q0 -20 17 -20h22q23 0 23 20v60q0 20 -23 20h-63
q-79 0 -109.5 25t-30.5 82v55q0 57 30.5 82t109.5 25h63v57h-257v113zM147 -171h166l130 -150h-166z" />
    <glyph glyph-name="uni0922094D0930094D" horiz-adv-x="517" 
d="M448 359h-213q-25 0 -25 -24v-198q0 -24 25 -24h57q25 0 25 24v30q0 24 -25 24h-44v113h78q90 0 125.5 -28.5t35.5 -98.5v-50q0 -61 -26.5 -90t-90.5 -35l94 -149h-139l-56 104l-58 -104h-139l95 148q-70 5 -98.5 34t-28.5 92v238q0 57 30.5 82t109.5 25h98v57h-298v113
h557v-113h-89v-170zM167 -171h166l130 -150h-166z" />
    <glyph glyph-name="uni0923094D0930094D" horiz-adv-x="492" 
d="M-20 642h542v-113h-74v-324q0 -70 -35.5 -98.5t-125.5 -28.5h-86q-90 0 -125.5 28.5t-35.5 98.5v324h-60v113zM278 215v314h-68v-314q0 -24 25 -24h18q25 0 25 24zM379 -147h-163l306 294v-151z" />
    <glyph glyph-name="uni0924094D0930094D" horiz-adv-x="404" 
d="M-20 642h444v-113h-444v113zM424 281v-100h-100l-102 -181h-195l130 231l-52 76q-19 28 -34 37.5t-41 9.5h-15v113h104q48 0 76 -15.5t53 -51.5l81 -119h95z" />
    <glyph glyph-name="uni0925094D0930094D" horiz-adv-x="450" 
d="M243 211h227v-65l-122 -206h-179l96 158h-104q-57 0 -84 26t-27 81v198h130q23 0 23 20v91q0 20 -23 20h-7q-23 0 -23 -20v-36h-90v63q0 55 31.5 80.5t98.5 25.5h53q67 0 98.5 -25.5t31.5 -80.5v-134q0 -58 -31 -87.5t-109 -29.5h-13v-55q0 -24 23 -24z" />
    <glyph glyph-name="uni0926094D0930094D" horiz-adv-x="474" 
d="M421 -61l130 -150h-166l-130 150h166zM264 0v97l-93 -157h-179l100 163q-66 18 -66 102v160q0 57 30.5 82t109.5 25h98v57h-298v113h528v-113h-60v-170h-213q-25 0 -25 -24v-100q0 -24 23 -24h22q23 0 23 24v56h170v-291h-170z" />
    <glyph glyph-name="uni0927094D0930094D" horiz-adv-x="402" 
d="M243 211h189v-65l-122 -206h-179l96 158h-66q-57 0 -84 26t-27 81v89q0 50 47 56v5q-47 6 -47 56v130q0 55 31.5 80.5t98.5 25.5h53q67 0 98.5 -25.5t31.5 -80.5v-63h-90v36q0 20 -23 20h-7q-23 0 -23 -20v-81q0 -24 23 -24h69v-113h-69q-23 0 -23 -24v-37q0 -24 23 -24z
" />
    <glyph glyph-name="uni0928094D0930094D" horiz-adv-x="548" 
d="M-20 642h588v-113h-588v113zM30 297v68q0 57 30.5 82t109.5 25h398v-113h-130v-62q0 -70 -35.5 -98.5t-125.5 -28.5h-86q-90 0 -125.5 28.5t-35.5 98.5zM200 339v-32q0 -24 25 -24h18q25 0 25 24v52h-45q-23 0 -23 -20zM328 -80h-160l400 402v-160z" />
    <glyph glyph-name="uni092A094D0930094D" horiz-adv-x="294" 
d="M314 529h-104v-294q0 -24 23 -24h81v-65l-122 -206h-179l101 165q-74 21 -74 120v304h-60v113h334v-113z" />
    <glyph glyph-name="uni092B094D0930094D" horiz-adv-x="571" 
d="M591 529h-136v-73q15 16 53 16h83v-113h-113q-23 0 -23 -24v-335h-170v97l-93 -157h-179l99 162q-72 16 -72 103v324h-60v113h611v-113zM285 235v294h-75v-294q0 -24 23 -24h29q23 0 23 24z" />
    <glyph glyph-name="uni092C094D0930094D" horiz-adv-x="352" 
d="M30 365q0 57 30.5 82t109.5 25h155v-103h-72l41 -51q12 -16 35.5 -51.5t42.5 -53.5v-130l-91 -143h-169l85 138h-36q-66 0 -98.5 29.5t-32.5 97.5v160zM200 215q0 -24 23 -24h91q-77 93 -114 141v-117zM-20 642h392v-113h-392v113z" />
    <glyph glyph-name="uni092D094D0930094D" horiz-adv-x="569" 
d="M448 447h141v-113h-141v-54q0 -70 -35.5 -98.5t-125.5 -28.5h-86q-90 0 -125.5 28.5t-35.5 98.5v60q0 57 30.5 82t109.5 25h98v67q0 20 -23 20h-13q-23 0 -23 -20v-26h-170v42q0 58 31 87.5t109 29.5h119q78 0 109 -29.5t31 -87.5v-83zM278 290v44h-45q-23 0 -23 -20v-24
q0 -24 25 -24h18q25 0 25 24zM356 -80h-160l393 396v-160z" />
    <glyph glyph-name="uni092E094D0930094D" horiz-adv-x="556" 
d="M576 529h-138v-82h138v-113h-138v-54q0 -70 -35.5 -98.5t-125.5 -28.5h-86q-90 0 -125.5 28.5t-35.5 98.5v60q0 57 30.5 82t109.5 25h98v82h-288v113h596v-113zM268 290v44h-63q-23 0 -23 -20v-24q0 -24 25 -24h36q25 0 25 24zM346 -80h-160l390 392v-160z" />
    <glyph glyph-name="uni092F094D0930094D" horiz-adv-x="427" 
d="M447 642v-113h-111q14 -17 14 -44v-89q0 -59 -29 -88t-106 -29h-5v-44q0 -24 23 -24h214v-65l-122 -206h-179l96 158h-91q-57 0 -84 26t-27 81v187h125q23 0 23 20v83q0 19 -7 26.5t-27 7.5h-174v113h467z" />
    <glyph glyph-name="uni0935094D0930094D" horiz-adv-x="305" 
d="M-20 642h335v-113h-335v113zM210 339v-104q0 -24 23 -24h82v-65l-123 -206h-179l99 162q-72 16 -72 103v160q0 57 30.5 82t109.5 25h64v-113h-11q-23 0 -23 -20z" />
    <glyph glyph-name="uni0938094D0930094D" horiz-adv-x="525" 
d="M545 642v-113h-118q6 -11 6 -25v-116q0 -14 -6 -25h118v-83l-123 -129h-173l130 112h-169v-140q0 -20 23 -20h200v-103h-253q-79 0 -109.5 25t-30.5 82v365h170v-109h19q19 0 26.5 7.5t7.5 26.5v98q0 19 -7.5 26.5t-26.5 7.5h-249v113h565z" />
    <glyph glyph-name="uni0915093C094D0930094D" horiz-adv-x="572" 
d="M612 529h-177v-103q15 16 53 16h124v-113h-154q-23 0 -23 -24v-305h-170v97l-93 -157h-179l101 165q-74 21 -74 120v140q0 57 30.5 82t109.5 25h64v-103h-11q-23 0 -23 -20v-114q0 -24 23 -24h29q23 0 23 24v294h-285v113h632v-113zM226 -179v129h122v-129h-122z" />
    <glyph glyph-name="uni0916093C094D0930094D" horiz-adv-x="720" 
d="M-20 642h770v-113h-323q6 -11 6 -25v-159q0 -63 -32.5 -89t-110.5 -26h-80v-83q0 -19 7.5 -26.5t26.5 -7.5h218v-113h-242q-95 0 -137.5 26.5t-42.5 88.5v357h170v-129h19q19 0 26.5 7.5t7.5 26.5v118q0 19 -7.5 26.5t-26.5 7.5h-249v113zM646 349v-114q0 -24 23 -24h81
v-65l-122 -206h-179l101 165q-74 21 -74 120v140q0 57 30.5 82t109.5 25h64v-103h-11q-23 0 -23 -20zM286 -179v129h122v-129h-122z" />
    <glyph glyph-name="uni0917093C094D0930094D" horiz-adv-x="600" 
d="M465 -24h122v-129h-122v129zM564 300v-161l-218 -219h-160zM275 158h-86q-90 0 -125.5 28.5t-35.5 98.5v72q0 62 42.5 88.5t137.5 26.5h58v57h-286v113h584v-113h-128v-244q0 -70 -35.5 -98.5t-125.5 -28.5zM198 328v-33q0 -24 25 -24h18q25 0 25 24v64h-37
q-19 0 -25 -5.5t-6 -25.5z" />
    <glyph glyph-name="uni0918093C094D0930094D" horiz-adv-x="334" 
d="M286 -50h122v-129h-122v129zM354 211v-65l-122 -206h-179l96 158q-56 1 -82.5 27t-26.5 80v96q0 50 47 56v5q-47 6 -47 56v86q0 14 6 25h-66v113h374v-113h-110q-20 0 -27 -7.5t-7 -26.5v-55q0 -24 23 -24h33v-113h-33q-23 0 -23 -24v-44q0 -24 23 -24h121z" />
    <glyph glyph-name="uni0919093C094D0930094D" horiz-adv-x="558" 
d="M-20 642h598v-113h-171v-160h-180q-23 0 -23 -20v-23q0 -20 23 -20h63q79 0 109.5 -25t30.5 -82v-92q0 -48 -21 -72.5t-73 -31.5l94 -150h-139l-56 104l-58 -104h-139l95 148q-59 5 -82 30t-23 76v52h170v-36q0 -20 17 -20h22q23 0 23 20v60q0 20 -23 20h-63
q-79 0 -109.5 25t-30.5 82v55q0 57 30.5 82t109.5 25h63v57h-257v113zM434 284v129h122v-129h-122zM211 -179h166l130 -150h-166zM78 -308v129h122v-129h-122z" />
    <glyph glyph-name="uni091A093C094D0930094D" horiz-adv-x="298" 
d="M236 -50h122v-129h-122v129zM318 211v-65l-122 -206h-179l99 162q-72 16 -72 103v100q0 35 17 54h-73v113h272v-113h-23q-23 0 -23 -24v-100q0 -24 23 -24h81zM318 642v-113h-340v113h340z" />
    <glyph glyph-name="uni091B093C094D0930094D" horiz-adv-x="701" 
d="M721 529h-162v-59q52 -5 77 -29t25 -76v-238q0 -69 -38.5 -98t-122.5 -29h-41l93 -147h-139l-56 104l-58 -104h-139l94 147h-59q-84 0 -122.5 29t-38.5 98v131q0 50 47 56v5q-47 6 -47 56v129q0 14 6 25h-60v113h741v-113zM399 529h-161q-20 0 -27 -7.5t-7 -26.5v-98
q0 -24 23 -24h33v-113h-33q-23 0 -23 -24v-97q0 -24 23 -24h241q23 0 23 24v219q0 20 -23 20h-16q-23 0 -23 -20v-40q0 -20 23 -20h11v-93h-41q-60 0 -91.5 24t-31.5 83v53q0 51 24.5 75.5t75.5 29.5v59zM341 -179h166l130 -150h-166zM208 -308v129h122v-129h-122z" />
    <glyph glyph-name="uni091C093C094D0930094D" horiz-adv-x="568" 
d="M456 -50h122v-129h-122v129zM588 316v-165l-213 -211h-179zM40 472h170v-180q0 -24 25 -24h18q25 0 25 24v180h310v-113h-140v-77q0 -70 -35.5 -98.5t-125.5 -28.5h-86q-90 0 -125.5 28.5t-35.5 98.5v190zM-20 642h608v-113h-608v113z" />
    <glyph glyph-name="uni091D093C094D0930094D" horiz-adv-x="586" 
d="M576 -50h122v-129h-122v129zM616 179v-151l-177 -175h-163zM292 0h-92v-62h-170v227h170v-62h39q23 0 23 20v59q0 20 -23 20h-69q-79 0 -109.5 25t-30.5 82v56q0 57 30.5 82t109.5 25h74v57h-264v113h636v-113h-202v-160h-191q-23 0 -23 -20v-24q0 -20 23 -20h393v-103
h-186q2 -14 2 -22v-73q0 -57 -30.5 -82t-109.5 -25z" />
    <glyph glyph-name="uni091E093C094D0930094D" horiz-adv-x="526" 
d="M474 -115h122v-129h-122v129zM556 179v-151l-177 -175h-163zM428 219v-14q0 -70 -35.5 -98.5t-125.5 -28.5h-86q-90 0 -125.5 28.5t-35.5 98.5v64h170v-54q0 -24 25 -24h18q25 0 25 24v124q0 20 -23 20h-102v113h155q78 0 109 -29.5t31 -87.5v-23h128v-113h-128zM556 642
v-113h-576v113h576z" />
    <glyph glyph-name="uni091F093C094D0930094D" horiz-adv-x="488" 
d="M407 -179l130 -150h-166l-130 150h166zM108 -308v129h122v-129h-122zM40 127v238q0 57 30.5 82t109.5 25h98v57h-298v113h528v-113h-60v-170h-213q-25 0 -25 -24v-198q0 -24 25 -24h18q25 0 25 24v102h170v-112q0 -56 -22 -85t-75 -38l95 -151h-139l-56 104l-58 -104
h-139l96 150q-60 7 -85 36t-25 88z" />
    <glyph glyph-name="uni0920093C094D0930094D" horiz-adv-x="488" 
d="M407 -179l130 -150h-166l-130 150h166zM108 -308v129h122v-129h-122zM40 127v218q0 61 27 90t92 35v59h-179v113h528v-113h-179v-59q65 -6 92 -35t27 -90v-218q0 -58 -23.5 -87t-79.5 -36l95 -151h-139l-56 104l-58 -104h-139l96 150q-56 8 -80 37t-24 87zM210 335v-198
q0 -24 25 -24h18q25 0 25 24v198q0 24 -25 24h-18q-25 0 -25 -24z" />
    <glyph glyph-name="uni0921093C094D0930094D" horiz-adv-x="470" 
d="M397 -179l130 -150h-166l-130 150h166zM98 -308v129h122v-129h-122zM28 107v52h170v-36q0 -20 17 -20h22q23 0 23 20v60q0 20 -23 20h-63q-79 0 -109.5 25t-30.5 82v55q0 57 30.5 82t109.5 25h63v57h-257v113h510v-113h-83v-160h-180q-23 0 -23 -20v-23q0 -20 23 -20h63
q79 0 109.5 -25t30.5 -82v-92q0 -49 -21 -73.5t-75 -31.5l94 -149h-139l-56 104l-58 -104h-139l95 149q-57 5 -80 30t-23 75z" />
    <glyph glyph-name="uni0922093C094D0930094D" horiz-adv-x="517" 
d="M426 -179l130 -150h-166l-130 150h166zM127 -308v129h122v-129h-122zM40 127v238q0 57 30.5 82t109.5 25h98v57h-298v113h557v-113h-89v-170h-213q-25 0 -25 -24v-198q0 -24 25 -24h57q25 0 25 24v30q0 24 -25 24h-44v113h78q90 0 125.5 -28.5t35.5 -98.5v-50
q0 -61 -26.5 -90t-90.5 -35l94 -149h-139l-56 104l-58 -104h-139l95 148q-70 5 -98.5 34t-28.5 92z" />
    <glyph glyph-name="uni0923093C094D0930094D" horiz-adv-x="492" 
d="M466 -90h122v-129h-122v129zM522 147v-151l-143 -143h-163zM448 529v-324q0 -70 -35.5 -98.5t-125.5 -28.5h-86q-90 0 -125.5 28.5t-35.5 98.5v324h-60v113h542v-113h-74zM235 191h18q25 0 25 24v314h-68v-314q0 -24 25 -24z" />
    <glyph glyph-name="uni0924093C094D0930094D" horiz-adv-x="404" 
d="M-20 642h444v-113h-444v113zM424 281v-100h-100l-102 -181h-195l130 231l-52 76q-19 28 -34 37.5t-41 9.5h-15v113h104q48 0 76 -15.5t53 -51.5l81 -119h95zM241 -161v129h122v-129h-122z" />
    <glyph glyph-name="uni0925093C094D0930094D" horiz-adv-x="450" 
d="M385 -63h122v-129h-122v129zM470 211v-65l-122 -206h-179l96 158h-104q-57 0 -84 26t-27 81v198h130q23 0 23 20v91q0 20 -23 20h-7q-23 0 -23 -20v-36h-90v63q0 55 31.5 80.5t98.5 25.5h53q67 0 98.5 -25.5t31.5 -80.5v-134q0 -58 -31 -87.5t-109 -29.5h-13v-55
q0 -24 23 -24h227z" />
    <glyph glyph-name="uni0926093C094D0930094D" horiz-adv-x="474" 
d="M407 -89l130 -150h-166l-130 150h166zM108 -218v129h122v-129h-122zM26 205v160q0 57 30.5 82t109.5 25h98v57h-298v113h528v-113h-60v-170h-213q-25 0 -25 -24v-100q0 -24 23 -24h22q23 0 23 24v56h170v-291h-170v97l-93 -157h-179l100 163q-66 18 -66 102z" />
    <glyph glyph-name="uni0927093C094D0930094D" horiz-adv-x="402" 
d="M367 -36h122v-129h-122v129zM432 211v-65l-122 -206h-179l96 158h-66q-57 0 -84 26t-27 81v89q0 50 47 56v5q-47 6 -47 56v130q0 55 31.5 80.5t98.5 25.5h53q67 0 98.5 -25.5t31.5 -80.5v-63h-90v36q0 20 -23 20h-7q-23 0 -23 -20v-81q0 -24 23 -24h69v-113h-69
q-23 0 -23 -24v-37q0 -24 23 -24h189z" />
    <glyph glyph-name="uni0928093C094D0930094D" horiz-adv-x="548" 
d="M-20 642h588v-113h-588v113zM30 297v68q0 57 30.5 82t109.5 25h398v-113h-130v-62q0 -70 -35.5 -98.5t-125.5 -28.5h-86q-90 0 -125.5 28.5t-35.5 98.5zM200 339v-32q0 -24 25 -24h18q25 0 25 24v52h-45q-23 0 -23 -20zM328 -80h-160l400 402v-160zM398 -167v129h122
v-129h-122z" />
    <glyph glyph-name="uni092A093C094D0930094D" horiz-adv-x="294" 
d="M239 -25h122v-129h-122v129zM314 211v-65l-122 -206h-179l101 165q-74 21 -74 120v304h-60v113h334v-113h-104v-294q0 -24 23 -24h81z" />
    <glyph glyph-name="uni092B093C094D0930094D" horiz-adv-x="571" 
d="M591 529h-136v-73q15 16 53 16h83v-113h-113q-23 0 -23 -24v-335h-170v97l-93 -157h-179l99 162q-72 16 -72 103v324h-60v113h611v-113zM285 235v294h-75v-294q0 -24 23 -24h29q23 0 23 24zM247 -170v129h122v-129h-122z" />
    <glyph glyph-name="uni092C093C094D0930094D" horiz-adv-x="352" 
d="M316 -63h122v-129h-122v129zM30 365q0 57 30.5 82t109.5 25h155v-103h-72l41 -51q12 -16 35.5 -51.5t42.5 -53.5v-130l-91 -143h-169l85 138h-36q-66 0 -98.5 29.5t-32.5 97.5v160zM200 215q0 -24 23 -24h91q-77 93 -114 141v-117zM-20 642h392v-113h-392v113z" />
    <glyph glyph-name="uni092D093C094D0930094D" horiz-adv-x="569" 
d="M448 447h141v-113h-141v-54q0 -70 -35.5 -98.5t-125.5 -28.5h-86q-90 0 -125.5 28.5t-35.5 98.5v60q0 57 30.5 82t109.5 25h98v67q0 20 -23 20h-13q-23 0 -23 -20v-26h-170v42q0 58 31 87.5t109 29.5h119q78 0 109 -29.5t31 -87.5v-83zM278 290v44h-45q-23 0 -23 -20v-24
q0 -24 25 -24h18q25 0 25 24zM356 -80h-160l393 396v-160zM456 -138v129h122v-129h-122z" />
    <glyph glyph-name="uni092E093C094D0930094D" horiz-adv-x="556" 
d="M576 529h-138v-82h138v-113h-138v-54q0 -70 -35.5 -98.5t-125.5 -28.5h-86q-90 0 -125.5 28.5t-35.5 98.5v60q0 57 30.5 82t109.5 25h98v82h-288v113h596v-113zM268 290v44h-63q-23 0 -23 -20v-24q0 -24 25 -24h36q25 0 25 24zM346 -80h-160l390 392v-160zM431 -165v129
h122v-129h-122z" />
    <glyph glyph-name="uni092F093C094D0930094D" horiz-adv-x="427" 
d="M368 -43h122v-129h-122v129zM447 211v-65l-122 -206h-179l96 158h-91q-57 0 -84 26t-27 81v187h125q23 0 23 20v83q0 19 -7 26.5t-27 7.5h-174v113h467v-113h-111q14 -17 14 -44v-89q0 -59 -29 -88t-106 -29h-5v-44q0 -24 23 -24h214z" />
    <glyph glyph-name="uni0935093C094D0930094D" horiz-adv-x="305" 
d="M247 -34h122v-129h-122v129zM315 211v-65l-123 -206h-179l99 162q-72 16 -72 103v160q0 57 30.5 82t109.5 25h64v-113h-11q-23 0 -23 -20v-104q0 -24 23 -24h82zM315 642v-113h-335v113h335z" />
    <glyph glyph-name="uni0915094D0915" horiz-adv-x="1190" 
d="M1210 529h-285v-73q15 16 53 16h61q66 0 98.5 -29.5t32.5 -97.5v-160q0 -57 -30.5 -82t-109.5 -25h-64v103h11q23 0 23 20v134q0 24 -23 24h-29q-23 0 -23 -24v-335h-170v94q-15 -16 -53 -16h-61q-66 0 -98.5 29.5t-32.5 97.5v110q0 21 6 44h-58q-23 0 -23 -24v-335h-170
v94q-15 -16 -53 -16h-61q-66 0 -98.5 29.5t-32.5 97.5v160q0 57 30.5 82t109.5 25h64v-103h-11q-23 0 -23 -20v-134q0 -24 23 -24h29q23 0 23 24v314h-285v113h1230v-113zM755 215v314h-320v-73q15 16 53 16h226v-103h-11q-23 0 -23 -20v-134q0 -24 23 -24h29q23 0 23 24z
" />
    <glyph glyph-name="uni0915094D0916" horiz-adv-x="1401" 
d="M1421 642v-113h-60v-529h-170v94q-15 -16 -53 -16h-61q-66 0 -98.5 29.5t-32.5 97.5v160q0 57 30.5 82t109.5 25h64v-103h-11q-23 0 -23 -20v-134q0 -24 23 -24h29q23 0 23 24v314h-294q6 -11 6 -25v-159q0 -63 -32.5 -89t-110.5 -26h-80v-83q0 -19 7.5 -26.5t26.5 -7.5
h248v-113h-272q-95 0 -137.5 26.5t-42.5 88.5v214h-52q-23 0 -23 -24v-305h-170v94q-15 -16 -53 -16h-61q-66 0 -98.5 29.5t-32.5 97.5v160q0 57 30.5 82t109.5 25h64v-103h-11q-23 0 -23 -20v-134q0 -24 23 -24h29q23 0 23 24v314h-285v113h1441zM733 377v118
q0 19 -7.5 26.5t-26.5 7.5h-264v-103q15 16 53 16h192v-99h19q19 0 26.5 7.5t7.5 26.5z" />
    <glyph glyph-name="uni0915094D091A" horiz-adv-x="955" 
d="M975 642v-113h-60v-529h-170v94q-15 -16 -53 -16h-61q-66 0 -98.5 29.5t-32.5 97.5v70q0 35 17 54h-59q-23 0 -23 -24v-305h-170v94q-15 -16 -53 -16h-61q-66 0 -98.5 29.5t-32.5 97.5v160q0 57 30.5 82t109.5 25h64v-103h-11q-23 0 -23 -20v-134q0 -24 23 -24h29
q23 0 23 24v314h-285v113h995zM745 215v314h-310v-103q15 16 53 16h228v-113h-23q-23 0 -23 -24v-90q0 -24 23 -24h29q23 0 23 24z" />
    <glyph glyph-name="uni0915094D091C" horiz-adv-x="1198" 
d="M1218 642v-113h-60v-529h-170v359h-70v-154q0 -70 -35.5 -98.5t-125.5 -28.5h-86q-90 0 -125.5 28.5t-35.5 98.5v154h-52q-23 0 -23 -24v-335h-170v94q-15 -16 -53 -16h-61q-66 0 -98.5 29.5t-32.5 97.5v160q0 57 30.5 82t109.5 25h64v-103h-11q-23 0 -23 -20v-134
q0 -24 23 -24h29q23 0 23 24v314h-285v113h1238zM988 472v57h-553v-73q15 16 53 16h192v-257q0 -24 25 -24h18q25 0 25 24v257h240z" />
    <glyph glyph-name="uni0915094D091F" horiz-adv-x="958" 
d="M978 642v-113h-60v-170h-213q-25 0 -25 -24v-198q0 -24 25 -24h18q25 0 25 24v102h170v-112q0 -70 -35.5 -98.5t-125.5 -28.5h-86q-90 0 -125.5 28.5t-35.5 98.5v232h-52q-23 0 -23 -24v-335h-170v94q-15 -16 -53 -16h-61q-66 0 -98.5 29.5t-32.5 97.5v160q0 57 30.5 82
t109.5 25h64v-103h-11q-23 0 -23 -20v-134q0 -24 23 -24h29q23 0 23 24v314h-285v113h998zM748 472v57h-313v-73q15 16 53 16h260z" />
    <glyph glyph-name="uni0915094D0923" horiz-adv-x="1218" 
d="M1238 642v-113h-60v-529h-170v529h-80v-324q0 -70 -35.5 -98.5t-125.5 -28.5h-86q-90 0 -125.5 28.5t-35.5 98.5v124h-62q-23 0 -23 -24v-305h-170v94q-15 -16 -53 -16h-61q-66 0 -98.5 29.5t-32.5 97.5v160q0 57 30.5 82t109.5 25h64v-103h-11q-23 0 -23 -20v-134
q0 -24 23 -24h29q23 0 23 24v314h-285v113h1258zM488 442h32v87h-85v-103q15 16 53 16zM758 215v314h-68v-314q0 -24 25 -24h18q25 0 25 24z" />
    <glyph glyph-name="uni0915094D0924" horiz-adv-x="744" 
d="M764 529h-285v-73q15 16 53 16h61q66 0 98.5 -29.5t32.5 -97.5v-160q0 -57 -30.5 -82t-109.5 -25h-64v103h11q23 0 23 20v134q0 24 -23 24h-29q-23 0 -23 -24v-335h-170v335q0 24 -23 24h-29q-23 0 -23 -24v-134q0 -20 23 -20h11v-103h-64q-79 0 -109.5 25t-30.5 82v126
q0 36 20 48h-77v113h249q38 0 53 -16v73h-329v113h784v-113z" />
    <glyph glyph-name="uni0915094D0925" horiz-adv-x="1121" 
d="M1141 642v-113h-60v-529h-170v94q-16 -16 -49 -16h-181q-84 0 -122.5 29t-38.5 98v85h-62q-23 0 -23 -24v-266h-170v94q-15 -16 -53 -16h-61q-66 0 -98.5 29.5t-32.5 97.5v160q0 57 30.5 82t109.5 25h64v-103h-11q-23 0 -23 -20v-134q0 -24 23 -24h29q23 0 23 24v314
h-285v113h511v-113h-56v-142q15 16 53 16h162q23 0 23 20v91q0 20 -23 20h-7q-23 0 -23 -20v-36h-90v63q0 55 31.5 80.5t98.5 25.5h53q67 0 98.5 -25.5t31.5 -80.5v-134q0 -58 -31 -87.5t-109 -29.5h-13v-75q0 -24 23 -24h164q19 0 26.5 7.5t7.5 26.5v304l-1 113h231z" />
    <glyph glyph-name="uni0915094D0926" horiz-adv-x="958" 
d="M978 642v-113h-60v-183h-213q-25 0 -25 -24v-107q0 -24 23 -24h22q23 0 23 24v63h170v-278h-170v94q-15 -16 -53 -16h-24q-90 0 -125.5 28.5t-35.5 98.5v141h-52q-23 0 -23 -24v-322h-170v94q-15 -16 -53 -16h-61q-66 0 -98.5 29.5t-32.5 97.5v160q0 57 30.5 82t109.5 25
h64v-103h-11q-23 0 -23 -20v-134q0 -24 23 -24h29q23 0 23 24v314h-285v113h998zM748 459v70h-313v-86q15 16 53 16h260z" />
    <glyph glyph-name="uni0915094D092A" horiz-adv-x="974" 
d="M994 642v-113h-60v-529h-170v94q-15 -16 -53 -16h-61q-66 0 -98.5 29.5t-32.5 97.5v124h-61q-23 0 -23 -24v-305h-170v94q-15 -16 -53 -16h-61q-66 0 -98.5 29.5t-32.5 97.5v160q0 57 30.5 82t109.5 25h64v-103h-11q-23 0 -23 -20v-134q0 -24 23 -24h29q23 0 23 24v314
h-285v113h1014zM488 442h31v87h-84v-103q15 16 53 16zM764 215v314h-75v-314q0 -24 23 -24h29q23 0 23 24z" />
    <glyph glyph-name="uni0915094D092B" horiz-adv-x="1199" 
d="M1219 529h-285v-73q15 16 53 16h61q66 0 98.5 -29.5t32.5 -97.5v-160q0 -57 -30.5 -82t-109.5 -25h-64v103h11q23 0 23 20v134q0 24 -23 24h-29q-23 0 -23 -24v-335h-170v94q-15 -16 -53 -16h-61q-66 0 -98.5 29.5t-32.5 97.5v124h-61q-23 0 -23 -24v-305h-170v94
q-15 -16 -53 -16h-61q-66 0 -98.5 29.5t-32.5 97.5v160q0 57 30.5 82t109.5 25h64v-103h-11q-23 0 -23 -20v-134q0 -24 23 -24h29q23 0 23 24v314h-285v113h1239v-113zM488 442h31v87h-84v-103q15 16 53 16zM764 215v314h-75v-314q0 -24 23 -24h29q23 0 23 24z" />
    <glyph glyph-name="uni0915094D092E" horiz-adv-x="1206" 
d="M1226 642v-113h-60v-529h-170v319h-78v-114q0 -70 -35.5 -98.5t-125.5 -28.5h-86q-90 0 -125.5 28.5t-35.5 98.5v114h-52q-23 0 -23 -24v-295h-170v94q-15 -16 -53 -16h-61q-66 0 -98.5 29.5t-32.5 97.5v160q0 57 30.5 82t109.5 25h64v-103h-11q-23 0 -23 -20v-134
q0 -24 23 -24h29q23 0 23 24v314h-285v113h1246zM435 529v-113q15 16 53 16h260v97h-313zM748 215v104h-63q-23 0 -23 -20v-84q0 -24 25 -24h36q25 0 25 24zM996 432v97h-78v-97h78z" />
    <glyph glyph-name="uni0915094D092F" horiz-adv-x="1098" 
d="M1118 642v-113h-60v-529h-170v94q-16 -16 -49 -16h-168q-84 0 -122.5 29t-38.5 98v74h-52q-23 0 -23 -24v-255h-170v94q-15 -16 -53 -16h-61q-66 0 -98.5 29.5t-32.5 97.5v160q0 57 30.5 82t109.5 25h64v-103h-11q-23 0 -23 -20v-134q0 -24 23 -24h29q23 0 23 24v314
h-285v113h1138zM658 412v83q0 19 -7 26.5t-27 7.5h-189v-153q15 16 53 16h147q23 0 23 20zM888 225v304h-82q14 -17 14 -44v-89q0 -59 -29 -88t-106 -29h-5v-64q0 -24 23 -24h151q20 0 27 7.5t7 26.5z" />
    <glyph glyph-name="uni0915094D0932" horiz-adv-x="1205" 
d="M1225 642v-113h-60v-529h-170v329h-47q-23 0 -23 -24v-137h-170v137q0 24 -23 24h-29q-23 0 -23 -24v-172q0 -20 23 -20h50v-113h-103q-79 0 -109.5 25t-30.5 82v222h-52q-23 0 -23 -24v-305h-170v94q-15 -16 -53 -16h-61q-66 0 -98.5 29.5t-32.5 97.5v160q0 57 30.5 82
t109.5 25h64v-103h-11q-23 0 -23 -20v-134q0 -24 23 -24h29q23 0 23 24v314h-285v113h1245zM995 442v87h-560v-103q15 16 53 16h294q50 0 56 -47h5q6 47 56 47h96z" />
    <glyph glyph-name="uni0915094D0935" horiz-adv-x="965" 
d="M985 642v-113h-60v-529h-170v94q-15 -16 -53 -16h-61q-66 0 -98.5 29.5t-32.5 97.5v124h-52q-23 0 -23 -24v-305h-170v94q-15 -16 -53 -16h-61q-66 0 -98.5 29.5t-32.5 97.5v160q0 57 30.5 82t109.5 25h64v-103h-11q-23 0 -23 -20v-134q0 -24 23 -24h29q23 0 23 24v314
h-285v113h1005zM755 215v314h-320v-103q15 16 53 16h226v-103h-11q-23 0 -23 -20v-104q0 -24 23 -24h29q23 0 23 24z" />
    <glyph glyph-name="uni0915094D0936" horiz-adv-x="1204" 
d="M994 642h230v-113h-60v-529h-170v642zM664 647h113q78 0 109 -29.5t31 -87.5v-182q0 -62 -42.5 -88.5t-137.5 -26.5h-43v-110q0 -20 23 -20h13q17 0 17 20v64h170v-80q0 -57 -30.5 -82t-109.5 -25h-113q-79 0 -109.5 25t-30.5 82v186h-66q-23 0 -23 -24v-269h-170v94
q-15 -16 -53 -16h-61q-66 0 -98.5 29.5t-32.5 97.5v160q0 57 30.5 82t109.5 25h64v-103h-11q-23 0 -23 -20v-134q0 -24 23 -24h29q23 0 23 24v314h-285v113h506v-113h-51v-139q15 16 53 16h206v-60h19q19 0 26.5 7.5t7.5 26.5v134q0 20 -23 20h-13q-17 0 -17 -20v-49h-170
v65q0 58 31 87.5t109 29.5z" />
    <glyph glyph-name="uni0915094D0938" horiz-adv-x="1177" 
d="M1197 642v-113h-60v-529h-170v250h-287v-127q0 -20 23 -20h13q17 0 17 20v81h170v-97q0 -57 -30.5 -82t-109.5 -25h-113q-79 0 -109.5 25t-30.5 82v222h-52q-23 0 -23 -24v-305h-170v94q-15 -16 -53 -16h-61q-66 0 -98.5 29.5t-32.5 97.5v160q0 57 30.5 82t109.5 25h64
v-103h-11q-23 0 -23 -20v-134q0 -24 23 -24h29q23 0 23 24v314h-285v113h1217zM733 397v98q0 19 -7.5 26.5t-26.5 7.5h-264v-103q15 16 53 16h192v-79h19q19 0 26.5 7.5t7.5 26.5zM967 363v166h-70q6 -11 6 -25v-116q0 -14 -6 -25h70z" />
    <glyph glyph-name="uni0916094D0916" horiz-adv-x="1612" 
d="M1632 642v-113h-60v-529h-170v94q-15 -16 -53 -16h-61q-66 0 -98.5 29.5t-32.5 97.5v160q0 57 30.5 82t109.5 25h64v-103h-11q-23 0 -23 -20v-134q0 -24 23 -24h29q23 0 23 24v314h-294q6 -11 6 -25v-159q0 -63 -32.5 -89t-110.5 -26h-80v-83q0 -19 7.5 -26.5t26.5 -7.5
h248v-113h-272q-87 0 -129.5 22t-49.5 73q-15 -17 -54 -17h-61q-66 0 -98.5 29.5t-32.5 97.5v160q0 57 30.5 82t109.5 25h64v-103h-11q-23 0 -23 -20v-134q0 -24 23 -24h29q23 0 23 24v257h170v-129h19q19 0 26.5 7.5t7.5 26.5v118q0 19 -7 26.5t-27 7.5h-483q6 -11 6 -25
v-159q0 -63 -32.5 -89t-110.5 -26h-80v-83q0 -19 7.5 -26.5t26.5 -7.5h248v-113h-272q-95 0 -137.5 26.5t-42.5 88.5v357h170v-129h19q19 0 26.5 7.5t7.5 26.5v118q0 19 -7.5 26.5t-26.5 7.5h-249v113h1652z" />
    <glyph glyph-name="uni0916094D0924" horiz-adv-x="1174" 
d="M1194 642v-113h-60v-529h-170v359h-50q-23 0 -23 -20v-206q0 -20 23 -20h11v-113h-64q-74 0 -105.5 22t-34.5 72q-13 -16 -53 -16h-61q-66 0 -98.5 29.5t-32.5 97.5v160q0 57 30.5 82t109.5 25h64v-103h-11q-23 0 -23 -20v-134q0 -24 23 -24h29q23 0 23 24v150
q0 57 30.5 82t109.5 25h103v57h-537q6 -11 6 -25v-159q0 -63 -32.5 -89t-110.5 -26h-80v-83q0 -19 7.5 -26.5t26.5 -7.5h248v-113h-272q-95 0 -137.5 26.5t-42.5 88.5v357h170v-129h19q19 0 26.5 7.5t7.5 26.5v118q0 19 -7.5 26.5t-26.5 7.5h-249v113h1214z" />
    <glyph glyph-name="uni0916094D092E" horiz-adv-x="1417" 
d="M1437 642v-113h-60v-529h-170v319h-78v-114q0 -70 -35.5 -98.5t-125.5 -28.5h-86q-87 0 -123 27q-18 -27 -70 -27h-82q-66 0 -98.5 29.5t-32.5 97.5v160q0 57 30.5 82t109.5 25h64v-103h-11q-23 0 -23 -20v-134q0 -24 23 -24h29q23 0 23 24v110q0 57 30.5 82t109.5 25h98
v97h-532q6 -11 6 -25v-159q0 -63 -32.5 -89t-110.5 -26h-80v-83q0 -19 7.5 -26.5t26.5 -7.5h248v-113h-272q-95 0 -137.5 26.5t-42.5 88.5v357h170v-129h19q19 0 26.5 7.5t7.5 26.5v118q0 19 -7.5 26.5t-26.5 7.5h-249v113h1457zM959 215v104h-63q-23 0 -23 -20v-84
q0 -24 25 -24h36q25 0 25 24zM1207 432v97h-78v-97h78z" />
    <glyph glyph-name="uni0916094D092F" horiz-adv-x="1309" 
d="M1329 642v-113h-60v-529h-170v94q-16 -16 -49 -16h-168q-84 0 -122 29q-18 -29 -71 -29h-82q-66 0 -98.5 29.5t-32.5 97.5v160q0 57 30.5 82t109.5 25h64v-103h-11q-23 0 -23 -20v-134q0 -24 23 -24h29q23 0 23 24v177h125q23 0 23 20v83q0 19 -7.5 26.5t-26.5 7.5h-408
q6 -11 6 -25v-159q0 -63 -32.5 -89t-110.5 -26h-80v-83q0 -19 7.5 -26.5t26.5 -7.5h248v-113h-272q-95 0 -137.5 26.5t-42.5 88.5v357h170v-129h19q19 0 26.5 7.5t7.5 26.5v118q0 19 -7.5 26.5t-26.5 7.5h-249v113h1349zM1099 225v304h-82q14 -17 14 -44v-89q0 -59 -29 -88
t-106 -29h-5v-64q0 -24 23 -24h151q19 0 26.5 7.5t7.5 26.5z" />
    <glyph glyph-name="uni0916094D0935" horiz-adv-x="1176" 
d="M1196 642v-113h-60v-529h-170v94q-15 -16 -53 -16h-61q-101 0 -123 70q-19 -10 -50 -10h-72q-66 0 -98.5 29.5t-32.5 97.5v100q0 57 30.5 82t109.5 25h64v-103h-11q-23 0 -23 -20v-74q0 -24 23 -24h29q23 0 23 24v90q0 57 30.5 82t109.5 25h64v-103h-11q-23 0 -23 -20
v-134q0 -24 23 -24h29q23 0 23 24v314h-539q6 -11 6 -25v-159q0 -63 -32.5 -89t-110.5 -26h-80v-83q0 -19 7.5 -26.5t26.5 -7.5h316v-113h-340q-95 0 -137.5 26.5t-42.5 88.5v357h170v-129h19q19 0 26.5 7.5t7.5 26.5v118q0 19 -7.5 26.5t-26.5 7.5h-249v113h1216z" />
    <glyph glyph-name="uni0916094D0936" horiz-adv-x="1401" 
d="M1191 642h230v-113h-60v-529h-170v642zM861 647h113q78 0 109 -29.5t31 -87.5v-182q0 -62 -42.5 -88.5t-137.5 -26.5h-43v-110q0 -20 23 -20h13q17 0 17 20v64h170v-80q0 -57 -30.5 -82t-109.5 -25h-113q-74 0 -105.5 22t-34.5 72q-13 -16 -53 -16h-61q-66 0 -98.5 29.5
t-32.5 97.5v160q0 57 30.5 82t109.5 25h63v-103h-10q-23 0 -23 -20v-134q0 -24 23 -24h29q23 0 23 24v191h170v-60h19q19 0 26.5 7.5t7.5 26.5v134q0 20 -23 20h-13q-17 0 -17 -20v-49h-170v65q0 58 31 87.5t109 29.5zM210 230v-83q0 -19 7.5 -26.5t26.5 -7.5h248v-113h-272
q-95 0 -137.5 26.5t-42.5 88.5v357h170v-129h19q19 0 26.5 7.5t7.5 26.5v118q0 19 -7.5 26.5t-26.5 7.5h-249v113h699v-113h-252q6 -11 6 -25v-159q0 -63 -32.5 -89t-110.5 -26h-80z" />
    <glyph glyph-name="uni0917094D0917" horiz-adv-x="1192" 
d="M1212 642v-113h-60v-529h-170v529h-80v-324q0 -70 -35.5 -98.5t-125.5 -28.5h-86q-90 0 -125.5 28.5t-35.5 98.5v152q0 62 42.5 88.5t137.5 26.5h58v57h-296v-324q0 -70 -35.5 -98.5t-125.5 -28.5h-86q-90 0 -125.5 28.5t-35.5 98.5v152q0 62 42.5 88.5t137.5 26.5h58v57
h-286v113h1232zM223 191h18q25 0 25 24v144h-37q-19 0 -25 -5.5t-6 -25.5v-113q0 -24 25 -24zM689 191h18q25 0 25 24v144h-37q-19 0 -25 -5.5t-6 -25.5v-113q0 -24 25 -24z" />
    <glyph glyph-name="uni0917094D0918" horiz-adv-x="994" 
d="M1026 642v-113h-60v-529h-170v94q-16 -16 -49 -16h-72q-84 0 -122.5 29t-38.5 98v96q0 50 47 56v5q-47 6 -47 56v86q0 14 6 25h-84v-324q0 -70 -35.5 -98.5t-125.5 -28.5h-86q-90 0 -125.5 28.5t-35.5 98.5v152q0 62 42.5 88.5t137.5 26.5h58v57h-286v113h1046zM223 191
h18q25 0 25 24v144h-37q-19 0 -25 -5.5t-6 -25.5v-113q0 -24 25 -24zM796 225v304h-78q-20 0 -27 -7.5t-7 -26.5v-55q0 -24 23 -24h33v-113h-33q-23 0 -23 -24v-64q0 -24 23 -24h55q20 0 27 7.5t7 26.5z" />
    <glyph glyph-name="uni0917094D091C" horiz-adv-x="1192" 
d="M1220 642v-113h-60v-529h-170v359h-70v-154q0 -70 -35.5 -98.5t-125.5 -28.5h-86q-90 0 -125.5 28.5t-35.5 98.5v267h170v-257q0 -24 25 -24h18q25 0 25 24v257h240v57h-554v-324q0 -70 -35.5 -98.5t-125.5 -28.5h-86q-90 0 -125.5 28.5t-35.5 98.5v152q0 62 42.5 88.5
t137.5 26.5h58v57h-286v113h1240zM223 191h18q25 0 25 24v144h-37q-19 0 -25 -5.5t-6 -25.5v-113q0 -24 25 -24z" />
    <glyph glyph-name="uni0917094D0923" horiz-adv-x="1202" 
d="M1222 642v-113h-60v-529h-170v529h-80v-324q0 -70 -35.5 -98.5t-125.5 -28.5h-86q-90 0 -125.5 28.5t-35.5 98.5v324h-68v-324q0 -70 -35.5 -98.5t-125.5 -28.5h-86q-90 0 -125.5 28.5t-35.5 98.5v152q0 62 42.5 88.5t137.5 26.5h58v57h-286v113h1242zM223 191h18
q25 0 25 24v144h-37q-19 0 -25 -5.5t-6 -25.5v-113q0 -24 25 -24zM742 215v314h-68v-314q0 -24 25 -24h18q25 0 25 24z" />
    <glyph glyph-name="uni0917094D0926" horiz-adv-x="952" 
d="M972 642v-113h-60v-170h-213q-25 0 -25 -24v-120q0 -24 23 -24h22q23 0 23 24v76h170v-291h-170v94q-15 -16 -53 -16h-24q-90 0 -125.5 28.5t-35.5 98.5v160q0 57 30.5 82t109.5 25h98v57h-306v-324q0 -70 -35.5 -98.5t-125.5 -28.5h-86q-90 0 -125.5 28.5t-35.5 98.5
v152q0 62 42.5 88.5t137.5 26.5h58v57h-286v113h992zM223 191h18q25 0 25 24v144h-37q-19 0 -25 -5.5t-6 -25.5v-113q0 -24 25 -24z" />
    <glyph glyph-name="uni0917094D0927" horiz-adv-x="1072" 
d="M1099 642v-113h-60v-529h-170v94q-16 -16 -49 -16h-174q-67 0 -98.5 25.5t-31.5 80.5v104q0 50 47 56v5q-47 6 -47 56v136q0 55 31.5 80.5t98.5 25.5h53q67 0 98.5 -25.5t31.5 -80.5v-63h-90v36q0 20 -23 20h-7q-23 0 -23 -20v-87q0 -24 23 -24h69v-113h-69
q-23 0 -23 -24v-51q0 -24 23 -24h126q19 0 26.5 7.5t7.5 26.5v304l-1 113h231zM-20 529v113h510v-113h-54v-324q0 -70 -35.5 -98.5t-125.5 -28.5h-86q-90 0 -125.5 28.5t-35.5 98.5v152q0 62 42.5 88.5t137.5 26.5h58v57h-286zM223 191h18q25 0 25 24v144h-37
q-19 0 -25 -5.5t-6 -25.5v-113q0 -24 25 -24z" />
    <glyph glyph-name="uni0917094D092C" horiz-adv-x="1058" 
d="M1078 642v-113h-60v-529h-170v83q-15 -5 -36 -5h-170q-66 0 -98.5 29.5t-32.5 97.5v160q0 57 30.5 82t109.5 25h155v-103h-72l120 -147q-6 14 -6 103v204h-412v-324q0 -70 -35.5 -98.5t-125.5 -28.5h-86q-90 0 -125.5 28.5t-35.5 98.5v152q0 62 42.5 88.5t137.5 26.5h58
v57h-286v113h1098zM223 191h18q25 0 25 24v144h-37q-19 0 -25 -5.5t-6 -25.5v-113q0 -24 25 -24zM681 215q0 -24 23 -24h91q-77 93 -114 141v-117z" />
    <glyph glyph-name="uni0917094D092D" horiz-adv-x="1207" 
d="M1227 642v-113h-60v-529h-170v327h-78v-122q0 -70 -35.5 -98.5t-125.5 -28.5h-86q-90 0 -125.5 28.5t-35.5 98.5v128q0 57 30.5 82t109.5 25h98v74q0 20 -23 20h-13q-23 0 -23 -20v-26h-170v42q0 58 31 87.5t109 29.5h119q78 0 109 -29.5t31 -87.5v-90h78v202h230z
M749 215v112h-45q-23 0 -23 -20v-92q0 -24 25 -24h18q25 0 25 24zM-20 529v113h506v-113h-50v-324q0 -70 -35.5 -98.5t-125.5 -28.5h-86q-90 0 -125.5 28.5t-35.5 98.5v152q0 62 42.5 88.5t137.5 26.5h58v57h-286zM223 191h18q25 0 25 24v144h-37q-19 0 -25 -5.5t-6 -25.5
v-113q0 -24 25 -24z" />
    <glyph glyph-name="uni0917094D092E" horiz-adv-x="1207" 
d="M1227 642v-113h-60v-529h-170v319h-78v-114q0 -70 -35.5 -98.5t-125.5 -28.5h-86q-90 0 -125.5 28.5t-35.5 98.5v120q0 57 30.5 82t109.5 25h98v97h-313v-324q0 -70 -35.5 -98.5t-125.5 -28.5h-86q-90 0 -125.5 28.5t-35.5 98.5v152q0 62 42.5 88.5t137.5 26.5h58v57
h-286v113h1247zM223 191h18q25 0 25 24v144h-37q-19 0 -25 -5.5t-6 -25.5v-113q0 -24 25 -24zM749 215v104h-63q-23 0 -23 -20v-84q0 -24 25 -24h36q25 0 25 24zM997 432v97h-78v-97h78z" />
    <glyph glyph-name="uni0917094D092F" horiz-adv-x="1099" 
d="M1119 642v-113h-60v-529h-170v94q-16 -16 -49 -16h-168q-84 0 -122.5 29t-38.5 98v187h125q23 0 23 20v83q0 19 -7.5 26.5t-26.5 7.5h-189v-324q0 -70 -35.5 -98.5t-125.5 -28.5h-86q-90 0 -125.5 28.5t-35.5 98.5v152q0 62 42.5 88.5t137.5 26.5h58v57h-286v113h1139z
M223 191h18q25 0 25 24v144h-37q-19 0 -25 -5.5t-6 -25.5v-113q0 -24 25 -24zM889 225v304h-82q14 -17 14 -44v-89q0 -59 -29 -88t-106 -29h-5v-64q0 -24 23 -24h151q19 0 26.5 7.5t7.5 26.5z" />
    <glyph glyph-name="uni0917094D0932" horiz-adv-x="1206" 
d="M1226 642v-113h-60v-529h-170v359h-47q-23 0 -23 -24v-167h-170v167q0 24 -23 24h-29q-23 0 -23 -24v-202q0 -20 23 -20h50v-113h-103q-79 0 -109.5 25t-30.5 82v238q0 68 32.5 97.5t98.5 29.5h141q50 0 56 -47h5q6 47 56 47h96v57h-560v-324q0 -70 -35.5 -98.5
t-125.5 -28.5h-86q-90 0 -125.5 28.5t-35.5 98.5v152q0 62 42.5 88.5t137.5 26.5h58v57h-286v113h1246zM223 191h18q25 0 25 24v144h-37q-19 0 -25 -5.5t-6 -25.5v-113q0 -24 25 -24z" />
    <glyph glyph-name="uni0917094D0935" horiz-adv-x="966" 
d="M986 642v-113h-60v-529h-170v94q-15 -16 -53 -16h-61q-66 0 -98.5 29.5t-32.5 97.5v160q0 57 30.5 82t109.5 25h64v-113h-11q-23 0 -23 -20v-124q0 -24 23 -24h29q23 0 23 24v314h-320v-324q0 -70 -35.5 -98.5t-125.5 -28.5h-86q-90 0 -125.5 28.5t-35.5 98.5v152
q0 62 42.5 88.5t137.5 26.5h58v57h-286v113h1006zM223 191h18q25 0 25 24v144h-37q-19 0 -25 -5.5t-6 -25.5v-113q0 -24 25 -24z" />
    <glyph glyph-name="uni0917094D0938" horiz-adv-x="1178" 
d="M1198 642v-113h-60v-529h-170v250h-287v-127q0 -20 23 -20h13q17 0 17 20v81h170v-97q0 -57 -30.5 -82t-109.5 -25h-113q-79 0 -109.5 25t-30.5 82v365h170v-109h19q19 0 26.5 7.5t7.5 26.5v98q0 19 -7 26.5t-27 7.5h-264v-324q0 -70 -35.5 -98.5t-125.5 -28.5h-86
q-90 0 -125.5 28.5t-35.5 98.5v152q0 62 42.5 88.5t137.5 26.5h58v57h-286v113h1218zM223 191h18q25 0 25 24v144h-37q-19 0 -25 -5.5t-6 -25.5v-113q0 -24 25 -24zM968 363v166h-70q6 -11 6 -25v-116q0 -14 -6 -25h70z" />
    <glyph glyph-name="uni0918094D092E" horiz-adv-x="1018" 
d="M1038 642v-113h-60v-529h-170v319h-78v-114q0 -70 -35.5 -98.5t-125.5 -28.5h-86q-94 0 -130 32q-18 -32 -69 -32h-83q-84 0 -122.5 29t-38.5 98v96q0 50 47 56v5q-47 6 -47 56v86q0 14 6 25h-66v113h1058zM322 225v100q0 57 30.5 82t109.5 25h98v97h-316q-20 0 -27 -7.5
t-7 -26.5v-55q0 -24 23 -24h33v-113h-33q-23 0 -23 -24v-64q0 -24 23 -24h55q20 0 27 7.5t7 26.5zM560 215v104h-63q-23 0 -23 -20v-84q0 -24 25 -24h36q25 0 25 24zM808 432v97h-78v-97h78z" />
    <glyph glyph-name="uni0918094D092F" horiz-adv-x="910" 
d="M930 642v-113h-60v-529h-170v94q-16 -16 -49 -16h-168q-92 0 -129 34q-16 -34 -70 -34h-83q-84 0 -122.5 29t-38.5 98v96q0 50 47 56v5q-47 6 -47 56v86q0 14 6 25h-66v113h950zM470 412v83q0 19 -7 26.5t-27 7.5h-192q-20 0 -27 -7.5t-7 -26.5v-55q0 -24 23 -24h33v-113
h-33q-23 0 -23 -24v-64q0 -24 23 -24h55q20 0 27 7.5t7 26.5v167h125q23 0 23 20zM700 225v304h-82q14 -17 14 -44v-89q0 -59 -29 -88t-106 -29h-5v-64q0 -24 23 -24h151q20 0 27 7.5t7 26.5z" />
    <glyph glyph-name="uni091A094D091A" horiz-adv-x="749" 
d="M769 642v-113h-60v-529h-170v94q-15 -16 -53 -16h-61q-70 0 -100 31q-20 -31 -69 -31h-81q-66 0 -98.5 29.5t-32.5 97.5v100q0 35 17 54h-73v113h255v-113h-6q-23 0 -23 -24v-120q0 -24 23 -24h23q20 0 27 7.5t7 26.5v80q0 35 17 54h-31v113h230v-113h-23q-23 0 -23 -24
v-120q0 -24 23 -24h29q23 0 23 24v314h-561v113h791z" />
    <glyph glyph-name="uni091A094D091B" horiz-adv-x="961" 
d="M981 529h-162v-59q52 -5 77 -29t25 -76v-238q0 -69 -38.5 -98t-122.5 -29h-305q-71 0 -109 20.5t-48 67.5q-22 -10 -47 -10h-76q-66 0 -98.5 29.5t-32.5 97.5v100q0 35 17 54h-73v113h255v-113h-6q-23 0 -23 -24v-120q0 -24 23 -24h23q20 0 27 7.5t7 26.5v33q0 50 47 56
v5q-47 6 -47 56v129q0 14 6 25h-320v113h1001v-113zM659 529h-161q-20 0 -27 -7.5t-7 -26.5v-98q0 -24 23 -24h33v-113h-33q-23 0 -23 -24v-97q0 -24 23 -24h241q23 0 23 24v219q0 20 -23 20h-16q-23 0 -23 -20v-40q0 -20 23 -20h11v-93h-41q-60 0 -91.5 24t-31.5 83v53
q0 51 24.5 75.5t75.5 29.5v59z" />
    <glyph glyph-name="uni091A094D092E" horiz-adv-x="990" 
d="M1010 642v-113h-60v-529h-170v319h-78v-114q0 -70 -35.5 -98.5t-125.5 -28.5h-86q-100 0 -133 36q-18 -36 -71 -36h-76q-66 0 -98.5 29.5t-32.5 97.5v100q0 35 17 54h-73v113h272v-113h-23q-23 0 -23 -24v-120q0 -24 23 -24h23q20 0 27 7.5t7 26.5v100q0 57 30.5 82
t109.5 25h98v97h-552v113h1030zM532 215v104h-63q-23 0 -23 -20v-84q0 -24 25 -24h36q25 0 25 24zM780 432v97h-78v-97h78z" />
    <glyph glyph-name="uni091A094D092F" horiz-adv-x="882" 
d="M902 642v-113h-60v-529h-170v94q-16 -16 -49 -16h-168q-95 0 -132 38q-17 -38 -72 -38h-76q-66 0 -98.5 29.5t-32.5 97.5v100q0 35 17 54h-73v113h272v-113h-23q-23 0 -23 -24v-120q0 -24 23 -24h23q20 0 27 7.5t7 26.5v167h125q23 0 23 20v83q0 19 -7 26.5t-27 7.5h-428
v113h922zM672 225v304h-82q14 -17 14 -44v-89q0 -59 -29 -88t-106 -29h-5v-64q0 -24 23 -24h151q20 0 27 7.5t7 26.5z" />
    <glyph glyph-name="uni091B094D092F" horiz-adv-x="1317" 
d="M1337 642v-113h-60v-529h-170v94q-16 -16 -49 -16h-168q-84 0 -122.5 29t-38.5 98v120h125q23 0 23 20v14q0 20 -23 20h-193v-252q0 -69 -38.5 -98t-122.5 -29h-305q-84 0 -122.5 29t-38.5 98v131q0 50 47 56v5q-47 6 -47 56v129q0 14 6 25h-60v113h1357zM1107 225v304
h-869q-20 0 -27 -7.5t-7 -26.5v-98q0 -24 23 -24h33v-113h-33q-23 0 -23 -24v-97q0 -24 23 -24h241q23 0 23 24v220q0 20 -23 20h-16q-23 0 -23 -20v-40q0 -20 23 -20h11v-93h-41q-60 0 -91.5 24t-31.5 83v65q0 60 34.5 83.5t108.5 23.5h462q77 0 106 -29t29 -88v-20
q0 -59 -29 -88t-106 -29h-5v-16q0 -24 23 -24h151q19 0 26.5 7.5t7.5 26.5z" />
    <glyph glyph-name="uni091B094D0935" horiz-adv-x="701" 
d="M721 529h-162v-59q52 -5 77 -29t25 -76v-238q0 -62 -31.5 -91.5t-99.5 -34.5v-291h-120v107q-15 -16 -53 -16h-77q-58 0 -86.5 24t-28.5 83v57q0 21 9 35q-73 4 -106.5 33.5t-33.5 93.5v131q0 50 47 56v5q-47 6 -47 56v129q0 14 6 25h-60v113h741v-113zM308 -99h79
q23 0 23 24v75h-91q-19 0 -26.5 -7t-7.5 -27v-41q0 -24 23 -24zM399 529h-161q-20 0 -27 -7.5t-7 -26.5v-98q0 -24 23 -24h33v-113h-33q-23 0 -23 -24v-97q0 -24 23 -24h241q23 0 23 24v219q0 20 -23 20h-16q-23 0 -23 -20v-40q0 -20 23 -20h11v-93h-41q-60 0 -91.5 24
t-31.5 83v53q0 51 24.5 75.5t75.5 29.5v59z" />
    <glyph glyph-name="uni091C094D0915" horiz-adv-x="1210" 
d="M1216 529h-285v-73q15 16 53 16h61q66 0 98.5 -29.5t32.5 -97.5v-160q0 -57 -30.5 -82t-109.5 -25h-64v103h11q23 0 23 20v134q0 24 -23 24h-29q-23 0 -23 -24v-335h-170v94q-15 -16 -53 -16h-61q-66 0 -98.5 29.5t-32.5 97.5v154h-68v-154q0 -70 -35.5 -98.5
t-125.5 -28.5h-86q-90 0 -125.5 28.5t-35.5 98.5v267h170v-257q0 -24 25 -24h18q25 0 25 24v257h442v-103h-11q-23 0 -23 -20v-134q0 -24 23 -24h29q23 0 23 24v314h-781v113h1236v-113z" />
    </font>
</defs>
</svg>
