<?xml version="1.0" standalone="no"?>
<!DOCTYPE svg PUBLIC "-//W3C//DTD SVG 1.1//EN" "http://www.w3.org/Graphics/SVG/1.1/DTD/svg11.dtd" >
<svg xmlns="http://www.w3.org/2000/svg" xmlns:xlink="http://www.w3.org/1999/xlink" version="1.1">
<metadata>
Created by FontForge 20170731 at Fri Jul 11 19:31:46 2014
 By Aleksey,,,
Copyright 2014 Indian Type Foundry. All rights reserved.
</metadata>
<defs>
<font id="Teko-Regular" horiz-adv-x="194" >
  <font-face 
    font-family="Teko"
    font-weight="400"
    font-stretch="normal"
    units-per-em="1000"
    panose-1="2 0 0 0 0 0 0 0 0 0"
    ascent="800"
    descent="-200"
    x-height="488"
    cap-height="626"
    bbox="-394 -394 1670 866"
    underline-thickness="50"
    underline-position="-150"
    unicode-range="U+000D-FB02"
  />
<missing-glyph horiz-adv-x="510" 
d="M251 302h-4l-100 -209h-60l134 260l-134 255h60l105 -206h4l100 206h60l-135 -261l135 -254h-60zM51 652v-603h400v603h-400zM0 0v701h502v-701h-502z" />
    <glyph glyph-name=".notdef" horiz-adv-x="510" 
d="M251 302h-4l-100 -209h-60l134 260l-134 255h60l105 -206h4l100 206h60l-135 -261l135 -254h-60zM51 652v-603h400v603h-400zM0 0v701h502v-701h-502z" />
    <glyph glyph-name=".null" horiz-adv-x="0" 
 />
    <glyph glyph-name="nonmarkingreturn" horiz-adv-x="333" 
 />
    <glyph glyph-name="NULL" horiz-adv-x="0" 
 />
    <glyph glyph-name="NULL" horiz-adv-x="0" 
 />
    <glyph glyph-name="CR" unicode="&#xd;" horiz-adv-x="0" 
 />
    <glyph glyph-name="space" unicode=" " horiz-adv-x="145" 
 />
    <glyph glyph-name="exclam" unicode="!" horiz-adv-x="209" 
d="M53 0v123h101v-123h-101zM50 626h109l-17 -422h-75z" />
    <glyph glyph-name="quotedbl" unicode="&#x22;" horiz-adv-x="292" 
d="M173 626h83v-223h-83v223zM36 626h83v-223h-83v223z" />
    <glyph glyph-name="numbersign" unicode="#" horiz-adv-x="496" 
d="M466 396h-66l-30 -166h63v-69h-75l-29 -161h-80l29 161h-113l-29 -161h-81l29 161h-54v69h66l30 166h-62v69h74l29 161h80l-29 -161h114l29 161h80l-29 -161h54v-69zM290 230l30 166h-114l-29 -166h113z" />
    <glyph glyph-name="dollar" unicode="$" horiz-adv-x="361" 
d="M159 356h73q92 0 92 -88v-180q0 -88 -94 -88h-6v-77h-86v77h-5q-93 0 -93 88v92h91v-78q0 -18 6 -23.5t24 -5.5h42q18 0 23.5 5.5t5.5 23.5v153q0 18 -5.5 23.5t-23.5 5.5h-74q-91 0 -91 89v165q0 88 93 88h7v77h86v-77h5q93 0 93 -88v-92h-91v78q0 18 -6 23.5t-24 5.5
h-42q-18 0 -24 -5.5t-6 -23.5v-139q0 -18 6 -23.5t24 -5.5z" />
    <glyph glyph-name="percent" unicode="%" horiz-adv-x="641" 
d="M429 626h75l-292 -626h-74zM538 88v162q0 17 -4.5 22t-21.5 5h-21q-17 0 -22 -5t-5 -22v-162q0 -17 5 -22t22 -5h21q17 0 21.5 5t4.5 22zM177 377v161q0 17 -5 22t-21 5h-22q-17 0 -21.5 -5t-4.5 -22v-161q0 -18 4.5 -23t21.5 -5h22q16 0 21 5.5t5 22.5zM612 261v-184
q0 -77 -77 -77h-67q-78 0 -78 77v184q0 77 78 77h67q77 0 77 -77zM251 549v-184q0 -77 -78 -77h-66q-78 0 -78 77v184q0 39 18.5 58t59.5 19h66q41 0 59.5 -19t18.5 -58z" />
    <glyph glyph-name="ampersand" unicode="&#x26;" horiz-adv-x="461" 
d="M339 0h-208q-93 0 -93 88v104q0 33 13 53.5t48 42.5l30 22q-24 30 -35 45t-22 40t-11 47v96q0 88 94 88h97q92 0 92 -88v-93q0 -51 -18 -80.5t-58 -55.5l-23 -15l115 -141v77h73v-142q0 -8 -2 -22l83 -101h-96l-35 42q-17 -7 -44 -7zM151 527v-91q0 -31 42 -80l6 5
q32 21 44.5 38t12.5 46v82q0 18 -6 23.5t-24 5.5h-46q-18 0 -23.5 -5.5t-5.5 -23.5zM156 71h173l-149 179l-24 -16q-17 -11 -23.5 -22.5t-6.5 -34.5v-77q0 -18 6 -23.5t24 -5.5z" />
    <glyph glyph-name="quotesingle" unicode="'" horiz-adv-x="161" 
d="M36 626h89v-223h-89v223z" />
    <glyph glyph-name="parenleft" unicode="(" horiz-adv-x="264" 
d="M47 375q0 203 55.5 311t165.5 108h15v-76l-13 -1q-133 -8 -133 -341v-134q0 -333 133 -341l13 -1v-75h-15q-110 0 -165.5 107.5t-55.5 311.5v131z" />
    <glyph glyph-name="parenright" unicode=")" horiz-adv-x="264" 
d="M215 244q0 -204 -55.5 -311.5t-165.5 -107.5h-15v75l13 1q133 8 133 341v134q0 333 -133 341l-13 1v76h15q110 0 165.5 -108t55.5 -311v-131z" />
    <glyph glyph-name="asterisk" unicode="*" horiz-adv-x="320" 
d="M123 590v36h75v-36q0 -33 -7 -61q24 15 57 25l33 11l24 -72l-35 -10q-25 -9 -60 -13q20 -16 42 -46l21 -29l-61 -44l-21 30q-21 29 -30 53q-16 -33 -31 -55l-21 -28l-62 44l22 29q21 29 42 46q-27 2 -95 24l23 71q68 -22 91 -37q-7 28 -7 62z" />
    <glyph glyph-name="plus" unicode="+" horiz-adv-x="408" 
d="M385 350v-74h-136v-151h-90v151h-136v74h136v151h90v-151h136z" />
    <glyph glyph-name="comma" unicode="," horiz-adv-x="165" 
d="M32 123h101v-65l-69 -198h-32v263z" />
    <glyph glyph-name="hyphen" unicode="-" horiz-adv-x="315" 
d="M48 259v70h218v-70h-218z" />
    <glyph glyph-name="period" unicode="." horiz-adv-x="165" 
d="M32 0v123h101v-123h-101z" />
    <glyph glyph-name="slash" unicode="/" horiz-adv-x="390" 
d="M275 700h84l-273 -820h-84z" />
    <glyph glyph-name="zero" unicode="0" horiz-adv-x="390" 
d="M252 102v422q0 18 -6 23.5t-24 5.5h-54q-18 0 -23.5 -5.5t-5.5 -23.5v-422q0 -18 5.5 -23.5t23.5 -5.5h54q18 0 24 5.5t6 23.5zM343 538v-450q0 -88 -93 -88h-109q-94 0 -94 88v450q0 88 94 88h109q93 0 93 -88z" />
    <glyph glyph-name="one" unicode="1" horiz-adv-x="235" 
d="M183 626v-626h-91v553h-72v73h163z" />
    <glyph glyph-name="two" unicode="2" horiz-adv-x="328" 
d="M115 524v-102h-90v116q0 88 93 88h86q94 0 94 -88v-63q0 -70 -35 -137l-135 -265h174v-73h-276v70l153 288q28 53 28 120v46q0 18 -5.5 23.5t-24.5 5.5h-32q-18 0 -24 -5.5t-6 -23.5z" />
    <glyph glyph-name="three" unicode="3" horiz-adv-x="355" 
d="M119 524v-94h-90v108q0 88 93 88h92q94 0 94 -88v-158q0 -53 -40 -62q40 -9 40 -58v-172q0 -88 -94 -88h-92q-93 0 -93 88v107h90v-93q0 -18 6 -23.5t24 -5.5h39q18 0 24 5.5t6 23.5v150q0 18 -6 23.5t-24 5.5h-75v72h75q18 0 24 5.5t6 23.5v142q0 18 -6 23.5t-24 5.5
h-39q-18 0 -24 -5.5t-6 -23.5z" />
    <glyph glyph-name="four" unicode="4" horiz-adv-x="363" 
d="M363 198v-74h-56v-124h-87v124h-214v75l180 427h90l-184 -428h128v120h87v-120h56z" />
    <glyph glyph-name="five" unicode="5" horiz-adv-x="358" 
d="M132 391h97q94 0 94 -88v-215q0 -88 -94 -88h-96q-93 0 -93 88v111h91v-97q0 -18 6 -23.5t24 -5.5h41q18 0 24 5.5t6 23.5v187q0 18 -6 24t-24 6h-160v307h279v-73h-189v-162z" />
    <glyph glyph-name="six" unicode="6" horiz-adv-x="382" 
d="M137 360h110q93 0 93 -89v-183q0 -88 -93 -88h-106q-94 0 -94 88v450q0 88 94 88h103q93 0 93 -88v-108h-89v94q0 18 -6 23.5t-24 5.5h-51q-18 0 -24 -5.5t-6 -23.5v-164zM250 102v157q0 17 -6 23t-24 6h-83v-186q0 -18 6 -23.5t24 -5.5h53q18 0 24 5.5t6 23.5z" />
    <glyph glyph-name="seven" unicode="7" horiz-adv-x="291" 
d="M286 626v-56l-168 -570h-92l163 551h-183v75h280z" />
    <glyph glyph-name="eight" unicode="8" horiz-adv-x="389" 
d="M342 538v-161q0 -53 -39 -62q39 -11 39 -59v-168q0 -88 -93 -88h-109q-93 0 -93 88v168q0 48 39 59q-39 9 -39 62v161q0 88 93 88h109q93 0 93 -88zM253 102v150q0 17 -5.5 23t-23.5 6h-59q-18 0 -23.5 -6t-5.5 -23v-150q0 -18 5.5 -24t23.5 -6h59q18 0 23.5 6t5.5 24z
M253 379v146q0 17 -5.5 23t-23.5 6h-59q-18 0 -23.5 -6t-5.5 -23v-146q0 -17 5.5 -23t23.5 -6h59q18 0 23.5 6t5.5 23z" />
    <glyph glyph-name="nine" unicode="9" horiz-adv-x="378" 
d="M131 626h106q94 0 94 -88v-450q0 -88 -94 -88h-103q-94 0 -94 88v107h90v-93q0 -18 5.5 -23.5t24.5 -5.5h51q18 0 23.5 5.5t5.5 23.5v154h-109q-93 0 -93 89v193q0 88 93 88zM158 327h82v197q0 18 -5.5 23.5t-23.5 5.5h-53q-18 0 -24 -5.5t-6 -23.5v-168q0 -17 6 -23
t24 -6z" />
    <glyph glyph-name="colon" unicode=":" horiz-adv-x="165" 
d="M32 295v123h101v-123h-101zM32 70v123h101v-123h-101z" />
    <glyph glyph-name="semicolon" unicode=";" horiz-adv-x="165" 
d="M32 365v123h101v-123h-101zM32 123h101v-65l-69 -198h-32v263z" />
    <glyph glyph-name="less" unicode="&#x3c;" horiz-adv-x="420" 
d="M391 400l-277 -86l277 -87v-81l-362 122v92l362 120v-80z" />
    <glyph glyph-name="equal" unicode="=" horiz-adv-x="420" 
d="M29 185v76h362v-76h-362zM29 365v76h362v-76h-362z" />
    <glyph glyph-name="greater" unicode="&#x3e;" horiz-adv-x="420" 
d="M306 314l-277 86v80l362 -120v-92l-362 -122v81z" />
    <glyph glyph-name="question" unicode="?" horiz-adv-x="342" 
d="M113 626h96q93 0 93 -87v-182q0 -87 -93 -87h-13l-4 -66h-76l-8 131h75q17 0 22.5 6.5t5.5 23.5v161q0 17 -5.5 23.5t-22.5 6.5h-44q-17 0 -22.5 -6.5t-5.5 -23.5v-72h-91v85q0 87 93 87zM103 0v123h101v-123h-101z" />
    <glyph glyph-name="at" unicode="@" horiz-adv-x="696" 
d="M318 332v-154q0 -17 5.5 -23t23.5 -6h29q32 0 32 35v142q0 19 -7.5 26.5t-24.5 7.5h-29q-18 0 -23.5 -5.5t-5.5 -22.5zM233 343q0 86 88 86h27q48 0 61 -39v39h82v-280h44q19 0 24.5 5.5t5.5 23.5v295q0 18 -5.5 24t-24.5 6h-344q-18 0 -23.5 -6t-5.5 -24v-442
q0 -17 5.5 -23t23.5 -6h301v-72h-326q-90 0 -90 88v469q0 88 90 88h394q90 0 90 -88v-318q0 -88 -91 -88h-145v51q-7 -51 -66 -51h-27q-88 0 -88 86v176z" />
    <glyph glyph-name="A" unicode="A" horiz-adv-x="385" 
d="M282 0l-25 145h-132l-23 -145h-90l111 626h131l119 -626h-91zM136 218h109l-57 330z" />
    <glyph glyph-name="B" unicode="B" horiz-adv-x="409" 
d="M272 383v143q0 18 -6 23.5t-24 5.5h-100v-201h100q18 0 24 5.5t6 23.5zM272 100v154q0 18 -6 23.5t-24 5.5h-100v-212h100q18 0 24 5.5t6 23.5zM52 626h217q94 0 94 -88v-159q0 -53 -40 -62q40 -10 40 -58v-171q0 -88 -94 -88h-217v626z" />
    <glyph glyph-name="C" unicode="C" horiz-adv-x="377" 
d="M340 430h-92v96q0 18 -5.5 23.5t-23.5 5.5h-51q-18 0 -24 -5.5t-6 -23.5v-427q0 -18 6 -23.5t24 -5.5h51q18 0 23.5 5.5t5.5 23.5v95h92v-106q0 -89 -94 -89h-106q-93 0 -93 89v450q0 88 93 88h106q94 0 94 -88v-108z" />
    <glyph glyph-name="D" unicode="D" horiz-adv-x="412" 
d="M54 626h218q93 0 93 -88v-450q0 -88 -93 -88h-218v626zM274 100v426q0 18 -6 23.5t-24 5.5h-99v-484h99q18 0 24 5.5t6 23.5z" />
    <glyph glyph-name="E" unicode="E" horiz-adv-x="343" 
d="M143 73h181v-73h-272v626h265v-73h-174v-193h144v-73h-144v-214z" />
    <glyph glyph-name="F" unicode="F" horiz-adv-x="332" 
d="M325 553h-182v-206h144v-71h-144v-276h-91v626h273v-73z" />
    <glyph glyph-name="G" unicode="G" horiz-adv-x="382" 
d="M340 443h-91v83q0 18 -6 23.5t-24 5.5h-51q-18 0 -24 -5.5t-6 -23.5v-427q0 -18 6 -23.5t24 -5.5h51q18 0 24 5.5t6 23.5v153h-50v70h141v-234q0 -89 -93 -89h-107q-93 0 -93 89v450q0 88 93 88h107q93 0 93 -88v-95z" />
    <glyph glyph-name="H" unicode="H" horiz-adv-x="417" 
d="M275 626h90v-626h-90v275h-133v-275h-90v626h90v-278h133v278z" />
    <glyph glyph-name="I" unicode="I" horiz-adv-x="210" 
d="M60 626h90v-626h-90v626z" />
    <glyph glyph-name="J" unicode="J" horiz-adv-x="334" 
d="M14 206h91v-104q0 -18 6 -23.5t24 -5.5h29q18 0 24 5.5t6 23.5v524h91v-538q0 -88 -93 -88h-85q-93 0 -93 88v118z" />
    <glyph glyph-name="K" unicode="K" horiz-adv-x="384" 
d="M374 626l-132 -314l131 -312h-98l-127 312l129 314h97zM52 0v626h90v-626h-90z" />
    <glyph glyph-name="L" unicode="L" horiz-adv-x="301" 
d="M142 73h155v-73h-245v626h90v-553z" />
    <glyph glyph-name="M" unicode="M" horiz-adv-x="516" 
d="M131 0h-79v626h99l107 -388l107 388h99v-626h-79v458l-86 -322h-82l-86 321v-457z" />
    <glyph glyph-name="N" unicode="N" horiz-adv-x="410" 
d="M275 626h83v-626h-91l-132 452v-452h-83v626h95l128 -439v439z" />
    <glyph glyph-name="O" unicode="O" horiz-adv-x="393" 
d="M141 626h111q93 0 93 -88v-450q0 -88 -93 -88h-111q-94 0 -94 88v450q0 88 94 88zM255 102v422q0 18 -6 23.5t-24 5.5h-58q-18 0 -23.5 -5.5t-5.5 -23.5v-422q0 -18 5.5 -23.5t23.5 -5.5h58q18 0 24 5.5t6 23.5z" />
    <glyph glyph-name="P" unicode="P" horiz-adv-x="378" 
d="M52 626h205q93 0 93 -88v-208q0 -88 -93 -88h-115v-242h-90v626zM260 344v180q0 18 -6 23.5t-24 5.5h-88v-239h88q18 0 24 6t6 24z" />
    <glyph glyph-name="Q" unicode="Q" horiz-adv-x="393" 
d="M141 0q-94 0 -94 88v450q0 88 94 88h111q93 0 93 -88v-450q0 -68 -56 -84l71 -95h-96l-66 91h-57zM138 524v-422q0 -18 5.5 -23.5t23.5 -5.5h58q18 0 24 5.5t6 23.5v422q0 18 -6 23.5t-24 5.5h-58q-18 0 -23.5 -5.5t-5.5 -23.5z" />
    <glyph glyph-name="R" unicode="R" horiz-adv-x="396" 
d="M142 253v-253h-90v626h205q93 0 93 -88v-196q0 -76 -67 -87l99 -255h-97l-94 253h-49zM142 553v-228h88q18 0 24 5.5t6 23.5v170q0 18 -6 23.5t-24 5.5h-88z" />
    <glyph glyph-name="S" unicode="S" horiz-adv-x="361" 
d="M232 102v153q0 18 -5.5 23.5t-23.5 5.5h-74q-91 0 -91 89v165q0 88 93 88h98q93 0 93 -88v-92h-91v78q0 18 -6 23.5t-24 5.5h-42q-18 0 -24 -5.5t-6 -23.5v-139q0 -18 6 -23.5t24 -5.5h73q92 0 92 -88v-180q0 -88 -94 -88h-97q-93 0 -93 88v92h91v-78q0 -18 6 -23.5
t24 -5.5h42q18 0 23.5 5.5t5.5 23.5z" />
    <glyph glyph-name="T" unicode="T" horiz-adv-x="310" 
d="M305 626v-73h-105v-553h-90v553h-105v73h300z" />
    <glyph glyph-name="U" unicode="U" horiz-adv-x="397" 
d="M257 626h91v-538q0 -88 -94 -88h-111q-94 0 -94 88v538h91v-524q0 -18 6 -23.5t24 -5.5h57q19 0 24.5 5.5t5.5 23.5v524z" />
    <glyph glyph-name="V" unicode="V" horiz-adv-x="364" 
d="M266 626h93l-113 -626h-128l-113 626h93l83 -543z" />
    <glyph glyph-name="W" unicode="W" horiz-adv-x="609" 
d="M508 626h91l-100 -626h-125l-70 470l-69 -470h-125l-100 626h93l70 -544l81 544h100l81 -544z" />
    <glyph glyph-name="X" unicode="X" horiz-adv-x="373" 
d="M235 320l134 -320h-100l-84 238l-84 -238h-97l132 320l-123 306h100l72 -225l73 225h98z" />
    <glyph glyph-name="Y" unicode="Y" horiz-adv-x="361" 
d="M229 0h-91v198l-134 428h92l87 -345l82 345h92l-128 -428v-198z" />
    <glyph glyph-name="Z" unicode="Z" horiz-adv-x="313" 
d="M305 627v-73l-205 -481h200v-73h-292v73l205 481h-194v73h286z" />
    <glyph glyph-name="bracketleft" unicode="[" horiz-adv-x="311" 
d="M249 710h-100v-802h100v-73h-191v948h191v-73z" />
    <glyph glyph-name="backslash" unicode="\" horiz-adv-x="390" 
d="M31 700h84l273 -820h-84z" />
    <glyph glyph-name="bracketright" unicode="]" horiz-adv-x="311" 
d="M234 783v-948h-190v73h99v802h-99v73h190z" />
    <glyph glyph-name="asciicircum" unicode="^" horiz-adv-x="498" 
d="M187 671h114l133 -354h-94l-96 270l-95 -270h-94z" />
    <glyph glyph-name="underscore" unicode="_" horiz-adv-x="474" 
d="M0 -114v71h474v-71h-474z" />
    <glyph glyph-name="grave" unicode="`" horiz-adv-x="421" 
d="M216 651l82 -132h-77l-105 132h100z" />
    <glyph glyph-name="a" unicode="a" horiz-adv-x="360" 
d="M226 488h90v-488h-90v39q-13 -39 -62 -39h-36q-90 0 -90 88v311q0 89 90 89h36q49 0 62 -39v39zM158 73h35q18 0 25.5 8t7.5 27v272q0 19 -7.5 27t-25.5 8h-35q-18 0 -24 -5.5t-6 -23.5v-284q0 -18 6 -23.5t24 -5.5z" />
    <glyph glyph-name="b" unicode="b" horiz-adv-x="360" 
d="M196 489h35q91 0 91 -89v-312q0 -88 -91 -88h-35q-49 0 -62 39v-39h-90v669h90v-219q13 39 62 39zM232 102v285q0 17 -6 23t-24 6h-35q-18 0 -25.5 -8t-7.5 -27v-273q0 -19 7.5 -27t25.5 -8h35q18 0 24 5.5t6 23.5z" />
    <glyph glyph-name="c" unicode="c" horiz-adv-x="351" 
d="M320 334h-89v52q0 18 -6 23.5t-24 5.5h-43q-18 0 -24 -5.5t-6 -23.5v-284q0 -18 6 -23.5t24 -5.5h43q18 0 24 5.5t6 23.5v52h89v-66q0 -88 -94 -88h-95q-93 0 -93 88v311q0 89 93 89h95q94 0 94 -89v-65z" />
    <glyph glyph-name="d" unicode="d" horiz-adv-x="360" 
d="M226 669h90v-669h-90v39q-13 -39 -62 -39h-36q-90 0 -90 88v312q0 89 90 89h36q49 0 62 -39v219zM158 73h35q18 0 25.5 8t7.5 27v273q0 19 -7.5 27t-25.5 8h-35q-18 0 -24 -6t-6 -23v-285q0 -18 6 -23.5t24 -5.5z" />
    <glyph glyph-name="e" unicode="e" horiz-adv-x="360" 
d="M135 488h98q94 0 94 -89v-183h-197v-116q0 -17 6 -23t24 -6h46q18 0 24 6t6 24v40h88v-53q0 -88 -93 -88h-96q-93 0 -93 88v311q0 89 93 89zM130 282h108v106q0 17 -5.5 23t-23.5 6h-49q-18 0 -24 -6t-6 -23v-106z" />
    <glyph glyph-name="f" unicode="f" horiz-adv-x="222" 
d="M217 593h-42q-18 0 -24 -5.5t-6 -23.5v-76h72v-73h-72v-415h-90v415h-49v73h49v93q0 88 93 88h69v-76z" />
    <glyph glyph-name="g" unicode="g" horiz-adv-x="360" 
d="M226 488h90v-538q0 -88 -94 -88h-167v71h141q18 0 24 6t6 23v83q-13 -39 -62 -39h-36q-90 0 -90 89v304q0 89 90 89h36q49 0 62 -39v39zM158 79h35q18 0 25.5 8t7.5 27v266q0 19 -7.5 27t-25.5 8h-35q-18 0 -24 -5.5t-6 -23.5v-278q0 -17 6 -23t24 -6z" />
    <glyph glyph-name="h" unicode="h" horiz-adv-x="365" 
d="M196 488h35q91 0 91 -89v-399h-90v386q0 18 -6 23.5t-24 5.5h-35q-18 0 -25.5 -8t-7.5 -27v-380h-90v669h90v-220q13 39 62 39z" />
    <glyph glyph-name="i" unicode="i" horiz-adv-x="178" 
d="M42 581v89h94v-89h-94zM134 0h-90v488h90v-488z" />
    <glyph glyph-name="j" unicode="j" horiz-adv-x="178" 
d="M42 581v89h94v-89h-94zM44 -38v526h90v-538q0 -88 -93 -88h-45v71h18q18 0 24 6t6 23z" />
    <glyph glyph-name="k" unicode="k" horiz-adv-x="357" 
d="M354 488l-112 -233l112 -255h-96l-108 255l108 233h96zM44 0v669h90v-669h-90z" />
    <glyph glyph-name="l" unicode="l" horiz-adv-x="178" 
d="M134 0h-90v669h90v-669z" />
    <glyph glyph-name="m" unicode="m" horiz-adv-x="548" 
d="M384 488h35q90 0 90 -89v-399h-90v386q0 18 -5.5 23.5t-23.5 5.5h-36q-32 0 -32 -35v-380h-90v386q0 18 -6 23.5t-24 5.5h-35q-18 0 -25.5 -8t-7.5 -27v-380h-90v488h90v-39q13 39 62 39h35q64 0 83 -45q12 45 70 45z" />
    <glyph glyph-name="n" unicode="n" horiz-adv-x="365" 
d="M196 488h35q91 0 91 -89v-399h-90v386q0 18 -6 23.5t-24 5.5h-35q-18 0 -25.5 -8t-7.5 -27v-380h-90v488h90v-39q13 39 62 39z" />
    <glyph glyph-name="o" unicode="o" horiz-adv-x="370" 
d="M131 488h107q93 0 93 -89v-311q0 -88 -93 -88h-107q-92 0 -92 88v311q0 89 92 89zM242 101v286q0 18 -6 24t-24 6h-55q-18 0 -23.5 -6t-5.5 -24v-286q0 -18 5.5 -24t23.5 -6h55q18 0 24 6t6 24z" />
    <glyph glyph-name="p" unicode="p" horiz-adv-x="360" 
d="M196 488h35q91 0 91 -89v-311q0 -88 -91 -88h-35q-49 0 -62 39v-177h-90v626h90v-39q13 39 62 39zM232 102v284q0 18 -6 23.5t-24 5.5h-35q-18 0 -25.5 -8t-7.5 -27v-272q0 -19 7.5 -27t25.5 -8h35q18 0 24 5.5t6 23.5z" />
    <glyph glyph-name="q" unicode="q" horiz-adv-x="360" 
d="M226 488h90v-626h-90v177q-13 -39 -62 -39h-36q-90 0 -90 88v311q0 89 90 89h36q49 0 62 -39v39zM158 73h35q18 0 25.5 8t7.5 27v272q0 19 -7.5 27t-25.5 8h-35q-18 0 -24 -5.5t-6 -23.5v-284q0 -18 6 -23.5t24 -5.5z" />
    <glyph glyph-name="r" unicode="r" horiz-adv-x="238" 
d="M213 489h20v-78h-36q-63 0 -63 -74v-337h-90v488h90v-60q8 26 28.5 43.5t50.5 17.5z" />
    <glyph glyph-name="s" unicode="s" horiz-adv-x="328" 
d="M207 98v81q0 18 -6 23.5t-24 5.5h-51q-93 0 -93 88v103q0 89 93 89h73q94 0 94 -89v-47h-88v38q0 18 -6 23.5t-24 5.5h-24q-18 0 -24 -5.5t-6 -23.5v-84q0 -18 6 -23.5t24 -5.5h52q92 0 92 -89v-100q0 -88 -93 -88h-74q-93 0 -93 88v48h88v-38q0 -18 6 -23.5t24 -5.5h24
q18 0 24 5.5t6 23.5z" />
    <glyph glyph-name="t" unicode="t" horiz-adv-x="219" 
d="M209 415h-67v-309q0 -18 5.5 -23.5t23.5 -5.5h38v-77h-64q-94 0 -94 88v327h-46v73h46v83h91v-83h67v-73z" />
    <glyph glyph-name="u" unicode="u" horiz-adv-x="365" 
d="M231 488h90v-488h-90v39q-13 -39 -62 -39h-36q-90 0 -90 88v400h90v-386q0 -18 6 -23.5t24 -5.5h35q18 0 25.5 8t7.5 27v380z" />
    <glyph glyph-name="v" unicode="v" horiz-adv-x="317" 
d="M94 488l64 -412l65 412h90l-90 -488h-129l-90 488h90z" />
    <glyph glyph-name="w" unicode="w" horiz-adv-x="543" 
d="M453 488h85l-90 -488h-119l-58 369l-58 -369h-119l-89 488h85l65 -411l63 411h107l61 -411z" />
    <glyph glyph-name="x" unicode="x" horiz-adv-x="342" 
d="M216 250l122 -250h-95l-73 169l-71 -169h-94l120 249l-113 239h96l63 -160l62 160h94z" />
    <glyph glyph-name="y" unicode="y" horiz-adv-x="342" 
d="M116 -138h-60v72h41q43 0 52 33l10 41h-49l-102 480h92l74 -409l69 409h91l-103 -535q-22 -91 -115 -91z" />
    <glyph glyph-name="z" unicode="z" horiz-adv-x="292" 
d="M278 72v-72h-264v72l169 344h-158v72h251v-72l-170 -344h172z" />
    <glyph glyph-name="braceleft" unicode="{" horiz-adv-x="283" 
d="M198 682v-251q0 -110 -76 -121q76 -9 76 -118v-254q0 -17 7 -24t25 -7h45v-71h-82q-47 0 -66.5 23t-19.5 67v241q0 56 -20 82t-63 26h-17v70h17q43 0 63 26.5t20 83.5v238q0 90 86 90h82v-71h-45q-18 0 -25 -6.5t-7 -23.5z" />
    <glyph glyph-name="bar" unicode="|" horiz-adv-x="197" 
d="M54 743h87v-861h-87v861z" />
    <glyph glyph-name="braceright" unicode="}" horiz-adv-x="283" 
d="M84 431v251q0 17 -7 23.5t-25 6.5h-45v71h82q47 0 66 -23.5t19 -66.5v-238q0 -57 20 -83.5t64 -26.5h16v-70h-16q-44 0 -64 -26t-20 -82v-241q0 -44 -19 -67t-66 -23h-82v71h45q18 0 25 7t7 24v254q0 109 76 118q-76 11 -76 121z" />
    <glyph glyph-name="asciitilde" unicode="~" horiz-adv-x="524" 
d="M344 213q-30 0 -55 12.5t-39 28.5q-37 40 -76 40q-18 0 -24 -8t-6 -25v-47h-83v66q0 81 84 81h37q28 0 52 -12.5t38 -28.5q38 -40 81 -40q17 0 22 7.5t5 26.5v46h83v-65q0 -82 -85 -82h-34z" />
    <glyph glyph-name="uni00A0" unicode="&#xa0;" horiz-adv-x="145" 
 />
    <glyph glyph-name="exclamdown" unicode="&#xa1;" horiz-adv-x="209" 
d="M159 -138h-109l17 422h75zM53 365v123h101v-123h-101z" />
    <glyph glyph-name="cent" unicode="&#xa2;" horiz-adv-x="351" 
d="M320 334h-89v52q0 18 -6 23.5t-24 5.5h-43q-18 0 -24 -5.5t-6 -23.5v-284q0 -18 6 -23.5t24 -5.5h43q18 0 24 5.5t6 23.5v52h89v-66q0 -88 -94 -88h-1v-76h-86v76h-8q-93 0 -93 88v311q0 89 93 89h8v77h86v-77h1q94 0 94 -89v-65z" />
    <glyph glyph-name="sterling" unicode="&#xa3;" horiz-adv-x="387" 
d="M364 73v-73h-332v71q27 1 37.5 23t10.5 72v101h-48v71h48v200q0 88 93 88h94q93 0 93 -88v-92h-91v78q0 18 -5.5 23.5t-23.5 5.5h-39q-18 0 -24 -5.5t-6 -23.5v-186h131v-71h-131v-113q0 -64 -26 -81h219z" />
    <glyph glyph-name="currency" unicode="&#xa4;" horiz-adv-x="484" 
d="M397 390v-182q0 -30 -7 -48l42 -42l-58 -58l-48 48q-18 -2 -29 -2h-97q-18 0 -35 3l-49 -49l-58 58l47 47q-5 20 -5 43v182q0 29 7 47l-49 49l58 58l55 -55q18 2 29 2h97q16 0 23 -1l54 54l58 -58l-44 -44q9 -21 9 -52zM222 176h52q25 0 33 7.5t8 32.5v165q0 26 -8 33.5
t-33 7.5h-52q-24 0 -32 -7.5t-8 -33.5v-165q0 -25 8 -32.5t32 -7.5z" />
    <glyph glyph-name="yen" unicode="&#xa5;" horiz-adv-x="383" 
d="M362 346v-69h-100l-18 -59h118v-66h-124v-152h-91v152h-125v66h119l-19 59h-100v69h79l-88 280h91l88 -331l87 331h91l-86 -280h78z" />
    <glyph glyph-name="brokenbar" unicode="&#xa6;" horiz-adv-x="197" 
d="M143 375h-91v347h91v-347zM52 250h91v-347h-91v347z" />
    <glyph glyph-name="section" unicode="&#xa7;" horiz-adv-x="419" 
d="M366 534h-90v35q0 18 -6 24t-24 6h-40q-19 0 -24.5 -6t-5.5 -24v-81q0 -18 5.5 -24t24.5 -6h66q93 0 93 -88v-81q0 -71 -41 -88q10 -20 10 -50v-103q0 -89 -94 -89h-94q-93 0 -93 89v45h90v-35q0 -18 6 -23.5t24 -5.5h41q18 0 23.5 5.5t5.5 23.5v82q0 18 -5.5 23.5
t-23.5 5.5h-67q-93 0 -93 89v77q0 73 43 90q-11 22 -11 51v104q0 88 93 88h94q93 0 93 -88v-46zM248 388h-76q-18 0 -24 -6t-6 -23v-90q0 -18 6 -23.5t24 -5.5h76q18 0 23.5 5.5t5.5 23.5v90q0 17 -5.5 23t-23.5 6z" />
    <glyph glyph-name="dieresis" unicode="&#xa8;" horiz-adv-x="421" 
d="M255 541v94h101v-94h-101zM65 541v94h102v-94h-102z" />
    <glyph glyph-name="copyright" unicode="&#xa9;" horiz-adv-x="701" 
d="M407 244v26h80v-39q0 -80 -84 -80h-90q-84 0 -84 80v174q0 81 84 81h90q84 0 84 -81v-38h-80v25q0 17 -5.5 22.5t-22.5 5.5h-43q-17 0 -22.5 -5.5t-5.5 -22.5v-148q0 -17 5.5 -22t22.5 -5h43q17 0 22.5 5t5.5 22zM270 68h175q79 0 112 52.5t33 152.5v73q0 214 -145 214
h-175q-145 0 -145 -214v-73q0 -100 33 -152.5t112 -52.5zM670 341v-63q0 -141 -51 -209.5t-166 -68.5h-191q-115 0 -166 68.5t-51 209.5v63q0 142 51.5 213.5t165.5 71.5h191q114 0 165.5 -71.5t51.5 -213.5z" />
    <glyph glyph-name="ordfeminine" unicode="&#xaa;" horiz-adv-x="257" 
d="M167 626h60v-344h-61v24q-9 -24 -41 -24h-36q-64 0 -64 63v218q0 63 64 63h35q34 0 43 -27v27zM107 334h37q22 0 22 24v192q0 25 -22 25h-37q-14 0 -18 -3.5t-4 -16.5v-200q0 -13 4.5 -17t17.5 -4z" />
    <glyph glyph-name="guillemotleft" unicode="&#xab;" horiz-adv-x="490" 
d="M358 104l-118 155l118 155h95l-121 -156l121 -154h-95zM156 104l-119 155l119 155h94l-120 -156l120 -154h-94z" />
    <glyph glyph-name="logicalnot" unicode="&#xac;" horiz-adv-x="460" 
d="M416 400v-239h-71v148h-311v91h382z" />
    <glyph glyph-name="uni00AD" unicode="&#xad;" horiz-adv-x="315" 
d="M48 259v70h218v-70h-218z" />
    <glyph glyph-name="registered" unicode="&#xae;" horiz-adv-x="414" 
d="M224 535v54q0 7 -6 7h-26v-67h26q6 0 6 6zM156 625h70q35 0 35 -32v-61q0 -28 -22 -32l33 -83h-38l-32 81h-10v-81h-36v208zM159 385h97q44 0 61.5 28t17.5 84v40q0 118 -79 118h-97q-80 0 -80 -118v-40q0 -56 18 -84t62 -28zM380 535v-35q0 -78 -28.5 -116t-91.5 -38
h-106q-64 0 -92 38t-28 116v35q0 78 28.5 117.5t91.5 39.5h106q120 0 120 -157z" />
    <glyph glyph-name="macron" unicode="&#xaf;" horiz-adv-x="421" 
d="M76 551v68h268v-68h-268z" />
    <glyph glyph-name="degree" unicode="&#xb0;" horiz-adv-x="383" 
d="M240 437v95q0 17 -6 22.5t-24 5.5h-42q-18 0 -24 -5.5t-6 -22.5v-95q0 -17 6 -22.5t24 -5.5h42q19 0 24.5 5.5t5.5 22.5zM324 539v-110q0 -86 -91 -86h-88q-91 0 -91 86v110q0 87 91 87h88q91 0 91 -87z" />
    <glyph glyph-name="plusminus" unicode="&#xb1;" horiz-adv-x="420" 
d="M255 426h136v-72h-136v-79h-90v79h-136v72h136v79h90v-79zM29 171v73h362v-73h-362z" />
    <glyph glyph-name="twosuperior" unicode="&#xb2;" horiz-adv-x="202" 
d="M73 563v-51h-59v66q0 48 51 48h68q51 0 51 -48v-33q0 -49 -22 -83l-78 -129h102v-51h-172v48l93 148q17 25 17 67v18q0 9 -3 12.5t-13 3.5h-18q-10 0 -13.5 -3.5t-3.5 -12.5z" />
    <glyph glyph-name="threesuperior" unicode="&#xb3;" horiz-adv-x="214" 
d="M76 563v-44h-61v59q0 48 52 48h71q51 0 51 -48v-88q0 -30 -22 -34q22 -4 22 -32v-94q0 -48 -51 -48h-71q-52 0 -52 48v59h61v-43q0 -10 3 -13t13 -3h21q10 0 13 3t3 13v70q0 10 -3 13t-13 3h-31v47h31q10 0 13 3.5t3 12.5v68q0 9 -3 12.5t-13 3.5h-21q-10 0 -13 -3.5
t-3 -12.5z" />
    <glyph glyph-name="acute" unicode="&#xb4;" horiz-adv-x="421" 
d="M118 519l82 132h100l-105 -132h-77z" />
    <glyph glyph-name="uni00B5" unicode="&#xb5;" horiz-adv-x="371" 
d="M228 488h90v-488h-90v39q-13 -39 -62 -39h-36v-138h-90v626h90v-386q0 -18 6 -23.5t24 -5.5h35q18 0 25.5 8t7.5 27v380z" />
    <glyph glyph-name="paragraph" unicode="&#xb6;" horiz-adv-x="507" 
d="M363 626h82v-764h-82v764zM287 626v-764h-82v364h-63q-93 0 -93 88v224q0 88 93 88h145z" />
    <glyph glyph-name="periodcentered" unicode="&#xb7;" horiz-adv-x="217" 
d="M34 259v121h101v-121h-101z" />
    <glyph glyph-name="cedilla" unicode="&#xb8;" horiz-adv-x="421" 
d="M206 -84v34h85v-41q0 -96 -101 -96h-57v70h40q33 0 33 33z" />
    <glyph glyph-name="onesuperior" unicode="&#xb9;" horiz-adv-x="145" 
d="M111 626v-344h-61v297h-39v47h100z" />
    <glyph glyph-name="ordmasculine" unicode="&#xba;" horiz-adv-x="248" 
d="M91 626h66q65 0 65 -63v-218q0 -63 -65 -63h-66q-65 0 -65 63v218q0 63 65 63zM162 350v208q0 13 -4.5 17t-17.5 4h-33q-13 0 -17 -4t-4 -17v-208q0 -12 4 -16t17 -4h33q13 0 17.5 4t4.5 16z" />
    <glyph glyph-name="guillemotright" unicode="&#xbb;" horiz-adv-x="490" 
d="M453 259l-119 -155h-94l120 154l-120 156h94zM250 259l-119 -155h-94l121 154l-121 156h94z" />
    <glyph glyph-name="questiondown" unicode="&#xbf;" horiz-adv-x="342" 
d="M211 34h91v-85q0 -87 -93 -87h-96q-93 0 -93 87v182q0 87 93 87h13l4 66h76l8 -131h-75q-17 0 -22.5 -6.5t-5.5 -23.5v-161q0 -17 5.5 -23.5t22.5 -6.5h44q17 0 22.5 6.5t5.5 23.5v72zM219 488v-123h-101v123h101z" />
    <glyph glyph-name="Agrave" unicode="&#xc0;" horiz-adv-x="385" 
d="M282 0l-25 145h-132l-23 -145h-90l111 626h131l119 -626h-91zM136 218h109l-57 330zM220 657h-77l-105 132h100z" />
    <glyph glyph-name="Aacute" unicode="&#xc1;" horiz-adv-x="385" 
d="M282 0l-25 145h-132l-23 -145h-90l111 626h131l119 -626h-91zM136 218h109l-57 330zM333 789l-105 -132h-77l82 132h100z" />
    <glyph glyph-name="Acircumflex" unicode="&#xc2;" horiz-adv-x="385" 
d="M282 0l-25 145h-132l-23 -145h-90l111 626h131l119 -626h-91zM136 218h109l-57 330zM188 738l-52 -81h-94l96 132h101l95 -132h-93z" />
    <glyph glyph-name="Atilde" unicode="&#xc3;" horiz-adv-x="385" 
d="M282 0l-25 145h-132l-23 -145h-90l111 626h131l119 -626h-91zM136 218h109l-57 330zM123 673v-15h-78v22q0 40 18 60t60 20h9q25 0 56.5 -19t41.5 -19t14 4.5t4 19.5v14h77v-23q0 -39 -17 -59t-60 -20h-7q-26 0 -59 19t-42 19q-17 0 -17 -23z" />
    <glyph glyph-name="Adieresis" unicode="&#xc4;" horiz-adv-x="385" 
d="M282 0l-25 145h-132l-23 -145h-90l111 626h131l119 -626h-91zM136 218h109l-57 330zM145 751v-94h-102v94h102zM334 751v-94h-101v94h101z" />
    <glyph glyph-name="Aring" unicode="&#xc5;" horiz-adv-x="385" 
d="M282 0l-25 145h-132l-23 -145h-90l111 626h131l119 -626h-91zM136 218h109l-57 330zM221 658h-65q-73 0 -73 70v17q0 70 73 70h65q73 0 73 -70v-17q0 -70 -73 -70zM146 740v-7q0 -15 4.5 -20t21.5 -5h33q17 0 21.5 5t4.5 20v7q0 15 -4.5 20t-21.5 5h-33q-17 0 -21.5 -5
t-4.5 -20z" />
    <glyph glyph-name="AE" unicode="&#xc6;" horiz-adv-x="579" 
d="M375 73h181v-73h-270v149h-131l-53 -149h-91l232 626h306v-73h-174v-193h144v-73h-144v-214zM286 221v293l-105 -293h105z" />
    <glyph glyph-name="Ccedilla" unicode="&#xc7;" horiz-adv-x="377" 
d="M340 430h-92v96q0 18 -5.5 23.5t-23.5 5.5h-51q-18 0 -24 -5.5t-6 -23.5v-427q0 -18 6 -23.5t24 -5.5h51q18 0 23.5 5.5t5.5 23.5v95h92v-106q0 -89 -94 -89h-106q-93 0 -93 89v450q0 88 93 88h106q94 0 94 -88v-108zM153 -84v34h85v-41q0 -96 -101 -96h-57v70h40
q33 0 33 33z" />
    <glyph glyph-name="Egrave" unicode="&#xc8;" horiz-adv-x="343" 
d="M143 73h181v-73h-272v626h265v-73h-174v-193h144v-73h-144v-214zM223 657h-77l-105 132h100z" />
    <glyph glyph-name="Eacute" unicode="&#xc9;" horiz-adv-x="343" 
d="M143 287v-214h181v-73h-272v626h265v-73h-174v-193h144v-73h-144zM325 789l-105 -132h-77l82 132h100z" />
    <glyph glyph-name="Ecircumflex" unicode="&#xca;" horiz-adv-x="343" 
d="M143 287v-214h181v-73h-272v626h265v-73h-174v-193h144v-73h-144zM186 738l-52 -81h-94l96 132h101l95 -132h-93z" />
    <glyph glyph-name="Edieresis" unicode="&#xcb;" horiz-adv-x="354" 
d="M227 751h101v-94h-101v94zM143 287v-214h181v-73h-272v626h265v-73h-174v-193h144v-73h-144zM139 751v-94h-102v94h102z" />
    <glyph glyph-name="Igrave" unicode="&#xcc;" horiz-adv-x="210" 
d="M61 789l82 -132h-77l-105 132h100zM60 626h90v-626h-90v626z" />
    <glyph glyph-name="Iacute" unicode="&#xcd;" horiz-adv-x="210" 
d="M69 657l82 132h100l-105 -132h-77zM60 626h90v-626h-90v626z" />
    <glyph glyph-name="Icircumflex" unicode="&#xce;" horiz-adv-x="210" 
d="M-40 657l96 132h101l95 -132h-93l-53 81l-52 -81h-94zM60 626h90v-626h-90v626z" />
    <glyph glyph-name="Idieresis" unicode="&#xcf;" horiz-adv-x="210" 
d="M60 626h90v-626h-90v626zM148 657v94h101v-94h-101zM-42 657v94h102v-94h-102z" />
    <glyph glyph-name="Eth" unicode="&#xd0;" horiz-adv-x="412" 
d="M54 626h218q93 0 93 -88v-450q0 -88 -93 -88h-218v280h-51v71h51v275zM274 100v426q0 18 -6 23.5t-24 5.5h-99v-204h75v-71h-75v-209h99q18 0 24 5.5t6 23.5z" />
    <glyph glyph-name="Ntilde" unicode="&#xd1;" horiz-adv-x="410" 
d="M261 658q-26 0 -59 19t-42 19q-17 0 -17 -23v-15h-78v22q0 40 18 60t60 20h9q25 0 56.5 -19t41.5 -19t14 4.5t4 19.5v14h77v-23q0 -39 -17 -59t-60 -20h-7zM275 626h83v-626h-91l-132 452v-452h-83v626h95l128 -439v439z" />
    <glyph glyph-name="Ograve" unicode="&#xd2;" horiz-adv-x="393" 
d="M141 626h111q93 0 93 -88v-450q0 -88 -93 -88h-111q-94 0 -94 88v450q0 88 94 88zM255 102v422q0 18 -6 23.5t-24 5.5h-58q-18 0 -23.5 -5.5t-5.5 -23.5v-422q0 -18 5.5 -23.5t23.5 -5.5h58q18 0 24 5.5t6 23.5zM225 657h-77l-105 132h100z" />
    <glyph glyph-name="Oacute" unicode="&#xd3;" horiz-adv-x="393" 
d="M141 626h111q93 0 93 -88v-450q0 -88 -93 -88h-111q-94 0 -94 88v450q0 88 94 88zM255 102v422q0 18 -6 23.5t-24 5.5h-58q-18 0 -23.5 -5.5t-5.5 -23.5v-422q0 -18 5.5 -23.5t23.5 -5.5h58q18 0 24 5.5t6 23.5zM334 789l-105 -132h-77l82 132h100z" />
    <glyph glyph-name="Ocircumflex" unicode="&#xd4;" horiz-adv-x="393" 
d="M141 626h111q93 0 93 -88v-450q0 -88 -93 -88h-111q-94 0 -94 88v450q0 88 94 88zM255 102v422q0 18 -6 23.5t-24 5.5h-58q-18 0 -23.5 -5.5t-5.5 -23.5v-422q0 -18 5.5 -23.5t23.5 -5.5h58q18 0 24 5.5t6 23.5zM195 738l-52 -81h-94l96 132h101l95 -132h-93z" />
    <glyph glyph-name="Otilde" unicode="&#xd5;" horiz-adv-x="393" 
d="M141 626h111q93 0 93 -88v-450q0 -88 -93 -88h-111q-94 0 -94 88v450q0 88 94 88zM255 102v422q0 18 -6 23.5t-24 5.5h-58q-18 0 -23.5 -5.5t-5.5 -23.5v-422q0 -18 5.5 -23.5t23.5 -5.5h58q18 0 24 5.5t6 23.5zM133 673v-15h-78v22q0 40 18 60t60 20h9q25 0 56.5 -19
t41.5 -19t14 4.5t4 19.5v14h77v-23q0 -39 -17 -59t-60 -20h-7q-26 0 -59 19t-42 19q-17 0 -17 -23z" />
    <glyph glyph-name="Odieresis" unicode="&#xd6;" horiz-adv-x="389" 
d="M141 626h111q93 0 93 -88v-450q0 -88 -93 -88h-111q-94 0 -94 88v450q0 88 94 88zM255 102v422q0 18 -6 23.5t-24 5.5h-58q-18 0 -23.5 -5.5t-5.5 -23.5v-422q0 -18 5.5 -23.5t23.5 -5.5h58q18 0 24 5.5t6 23.5zM153 751v-94h-102v94h102zM342 751v-94h-101v94h101z" />
    <glyph glyph-name="multiply" unicode="&#xd7;" horiz-adv-x="378" 
d="M354 420l-109 -109l109 -109l-56 -56l-109 109l-109 -109l-56 56l109 109l-109 109l56 56l109 -109l109 109z" />
    <glyph glyph-name="Oslash" unicode="&#xd8;" horiz-adv-x="401" 
d="M349 538v-450q0 -88 -93 -88h-111q-18 0 -33 3l-9 -23h-53l18 49q-17 22 -17 59v450q0 88 94 88h111q21 0 34 -4l9 24h53l-19 -50q16 -20 16 -58zM139 529v-311l122 325q-4 15 -30 15h-62q-19 0 -24.5 -6t-5.5 -23zM262 98v307l-121 -324q4 -13 28 -13h62q19 0 25 6t6 24
z" />
    <glyph glyph-name="Ugrave" unicode="&#xd9;" horiz-adv-x="397" 
d="M257 626h91v-538q0 -88 -94 -88h-111q-94 0 -94 88v538h91v-524q0 -18 6 -23.5t24 -5.5h57q19 0 24.5 5.5t5.5 23.5v524zM237 657h-77l-105 132h100z" />
    <glyph glyph-name="Uacute" unicode="&#xda;" horiz-adv-x="397" 
d="M257 626h91v-538q0 -88 -94 -88h-111q-94 0 -94 88v538h91v-524q0 -18 6 -23.5t24 -5.5h57q19 0 24.5 5.5t5.5 23.5v524zM340 789l-105 -132h-77l82 132h100z" />
    <glyph glyph-name="Ucircumflex" unicode="&#xdb;" horiz-adv-x="397" 
d="M257 626h91v-538q0 -88 -94 -88h-111q-94 0 -94 88v538h91v-524q0 -18 6 -23.5t24 -5.5h57q19 0 24.5 5.5t5.5 23.5v524zM198 738l-52 -81h-94l96 132h101l95 -132h-93z" />
    <glyph glyph-name="Udieresis" unicode="&#xdc;" horiz-adv-x="397" 
d="M257 626h91v-538q0 -88 -94 -88h-111q-94 0 -94 88v538h91v-524q0 -18 6 -23.5t24 -5.5h57q19 0 24.5 5.5t5.5 23.5v524zM155 751v-94h-102v94h102zM344 751v-94h-101v94h101z" />
    <glyph glyph-name="Yacute" unicode="&#xdd;" horiz-adv-x="361" 
d="M229 0h-91v198l-134 428h92l87 -345l82 345h92l-128 -428v-198zM325 789l-105 -132h-77l82 132h100z" />
    <glyph glyph-name="Thorn" unicode="&#xde;" horiz-adv-x="385" 
d="M143 503h113q93 0 93 -88v-204q0 -88 -93 -88h-113v-123h-90v626h90v-123zM259 224v178q0 18 -6 23.5t-24 5.5h-86v-236h86q18 0 24 5.5t6 23.5z" />
    <glyph glyph-name="germandbls" unicode="&#xdf;" horiz-adv-x="477" 
d="M200 151h89v-52q0 -17 5.5 -23t23.5 -6h11q18 0 23.5 5.5t5.5 23.5v81q0 18 -5.5 23.5t-23.5 5.5h-38q-91 0 -91 89v56q0 86 88 86q23 0 29.5 4t6.5 20v31q0 18 -5.5 24t-23.5 6h-129q-18 0 -24.5 -6t-6.5 -24v-495h-90v512q0 88 91 88h188q91 0 91 -87v-67
q0 -73 -80 -73h-18q-18 0 -24 -5.5t-6 -23.5v-37q0 -18 6 -23.5t24 -5.5h37q93 0 93 -88v-102q0 -88 -91 -88h-64q-92 0 -92 88v63z" />
    <glyph glyph-name="agrave" unicode="&#xe0;" horiz-adv-x="360" 
d="M226 488h90v-488h-90v39q-13 -39 -62 -39h-36q-90 0 -90 88v311q0 89 90 89h36q49 0 62 -39v39zM158 73h35q18 0 25.5 8t7.5 27v272q0 19 -7.5 27t-25.5 8h-35q-18 0 -24 -5.5t-6 -23.5v-284q0 -18 6 -23.5t24 -5.5zM245 519h-77l-105 132h100z" />
    <glyph glyph-name="aacute" unicode="&#xe1;" horiz-adv-x="360" 
d="M226 488h90v-488h-90v39q-13 -39 -62 -39h-36q-90 0 -90 88v311q0 89 90 89h36q49 0 62 -39v39zM158 73h35q18 0 25.5 8t7.5 27v272q0 19 -7.5 27t-25.5 8h-35q-18 0 -24 -5.5t-6 -23.5v-284q0 -18 6 -23.5t24 -5.5zM328 651l-105 -132h-77l82 132h100z" />
    <glyph glyph-name="acircumflex" unicode="&#xe2;" horiz-adv-x="360" 
d="M226 488h90v-488h-90v39q-13 -39 -62 -39h-36q-90 0 -90 88v311q0 89 90 89h36q49 0 62 -39v39zM158 73h35q18 0 25.5 8t7.5 27v272q0 19 -7.5 27t-25.5 8h-35q-18 0 -24 -5.5t-6 -23.5v-284q0 -18 6 -23.5t24 -5.5zM182 600l-52 -81h-94l96 132h101l95 -132h-93z" />
    <glyph glyph-name="atilde" unicode="&#xe3;" horiz-adv-x="360" 
d="M226 488h90v-488h-90v39q-13 -39 -62 -39h-36q-90 0 -90 88v311q0 89 90 89h36q49 0 62 -39v39zM158 73h35q18 0 25.5 8t7.5 27v272q0 19 -7.5 27t-25.5 8h-35q-18 0 -24 -5.5t-6 -23.5v-284q0 -18 6 -23.5t24 -5.5zM113 549v-15h-78v22q0 40 18 60t60 20h9
q25 0 56.5 -19t41.5 -19t14 4.5t4 19.5v14h77v-23q0 -39 -17 -59t-60 -20h-7q-26 0 -59 19t-42 19q-17 0 -17 -23z" />
    <glyph glyph-name="adieresis" unicode="&#xe4;" horiz-adv-x="360" 
d="M223 635h101v-94h-101v94zM226 488h90v-488h-90v39q-13 -39 -62 -39h-36q-90 0 -90 88v311q0 89 90 89h36q49 0 62 -39v39zM158 73h35q18 0 25.5 8t7.5 27v272q0 19 -7.5 27t-25.5 8h-35q-18 0 -24 -5.5t-6 -23.5v-284q0 -18 6 -23.5t24 -5.5zM135 635v-94h-102v94h102z
" />
    <glyph glyph-name="aring" unicode="&#xe5;" horiz-adv-x="360" 
d="M226 488h90v-488h-90v39q-13 -39 -62 -39h-36q-90 0 -90 88v311q0 89 90 89h36q49 0 62 -39v39zM158 73h35q18 0 25.5 8t7.5 27v272q0 19 -7.5 27t-25.5 8h-35q-18 0 -24 -5.5t-6 -23.5v-284q0 -18 6 -23.5t24 -5.5zM216 528h-65q-73 0 -73 70v17q0 70 73 70h65
q73 0 73 -70v-17q0 -70 -73 -70zM141 610v-7q0 -15 4.5 -20t21.5 -5h33q17 0 21.5 5t4.5 20v7q0 15 -4.5 20t-21.5 5h-33q-17 0 -21.5 -5t-4.5 -20z" />
    <glyph glyph-name="ae" unicode="&#xe6;" horiz-adv-x="557" 
d="M505 215h-185v-114q0 -18 5.5 -23.5t23.5 -5.5h45q18 0 24 5.5t6 23.5v40h89v-53q0 -88 -93 -88h-77q-26 0 -45 12t-26 30q-6 -18 -24.5 -30t-44.5 -12h-70q-90 0 -90 88v114l188 77v106q-3 30 -33 30h-35q-18 0 -24 -5.5t-6 -23.5v-75h-90v88q0 89 90 89h71
q25 0 44 -12.5t25 -29.5q6 18 25 30t46 12h78q93 0 93 -89v-179h-10v-5zM397 416h-48q-18 0 -23.5 -5.5t-5.5 -23.5v-104h106v104q0 18 -5.5 23.5t-23.5 5.5zM163 73h35q16 0 24 6.5t9 23.5v104l-98 -39v-66q0 -18 6 -23.5t24 -5.5z" />
    <glyph glyph-name="ccedilla" unicode="&#xe7;" horiz-adv-x="351" 
d="M320 334h-89v52q0 18 -6 23.5t-24 5.5h-43q-18 0 -24 -5.5t-6 -23.5v-284q0 -18 6 -23.5t24 -5.5h43q18 0 24 5.5t6 23.5v52h89v-66q0 -88 -94 -88h-95q-93 0 -93 88v311q0 89 93 89h95q94 0 94 -89v-65zM140 -84v34h85v-41q0 -96 -101 -96h-57v70h40q33 0 33 33z" />
    <glyph glyph-name="egrave" unicode="&#xe8;" horiz-adv-x="360" 
d="M135 488h98q94 0 94 -89v-183h-197v-116q0 -17 6 -23t24 -6h46q18 0 24 6t6 24v40h88v-53q0 -88 -93 -88h-96q-93 0 -93 88v311q0 89 93 89zM130 282h108v106q0 17 -5.5 23t-23.5 6h-49q-18 0 -24 -6t-6 -23v-106zM217 519h-77l-105 132h100z" />
    <glyph glyph-name="eacute" unicode="&#xe9;" horiz-adv-x="360" 
d="M135 488h98q94 0 94 -89v-183h-197v-116q0 -17 6 -23t24 -6h46q18 0 24 6t6 24v40h88v-53q0 -88 -93 -88h-96q-93 0 -93 88v311q0 89 93 89zM130 282h108v106q0 17 -5.5 23t-23.5 6h-49q-18 0 -24 -6t-6 -23v-106zM327 651l-105 -132h-77l82 132h100z" />
    <glyph glyph-name="ecircumflex" unicode="&#xea;" horiz-adv-x="358" 
d="M135 488h98q94 0 94 -89v-183h-197v-116q0 -17 6 -23t24 -6h46q18 0 24 6t6 24v40h88v-53q0 -88 -93 -88h-96q-93 0 -93 88v311q0 89 93 89zM130 282h108v106q0 17 -5.5 23t-23.5 6h-49q-18 0 -24 -6t-6 -23v-106zM186 600l-52 -81h-94l96 132h101l95 -132h-93z" />
    <glyph glyph-name="edieresis" unicode="&#xeb;" horiz-adv-x="358" 
d="M135 488h98q94 0 94 -89v-183h-197v-116q0 -17 6 -23t24 -6h46q18 0 24 6t6 24v40h88v-53q0 -88 -93 -88h-96q-93 0 -93 88v311q0 89 93 89zM130 282h108v106q0 17 -5.5 23t-23.5 6h-49q-18 0 -24 -6t-6 -23v-106zM136 635v-94h-102v94h102zM325 635v-94h-101v94h101z
" />
    <glyph glyph-name="igrave" unicode="&#xec;" horiz-adv-x="178" 
d="M46 651l82 -132h-77l-105 132h100zM134 0h-90v488h90v-488z" />
    <glyph glyph-name="iacute" unicode="&#xed;" horiz-adv-x="178" 
d="M47 519l82 132h100l-105 -132h-77zM134 0h-90v488h90v-488z" />
    <glyph glyph-name="icircumflex" unicode="&#xee;" horiz-adv-x="178" 
d="M-57 519l96 132h101l95 -132h-93l-53 81l-52 -81h-94zM134 0h-90v488h90v-488z" />
    <glyph glyph-name="idieresis" unicode="&#xef;" horiz-adv-x="178" 
d="M133 541v94h101v-94h-101zM-57 541v94h102v-94h-102zM134 0h-90v488h90v-488z" />
    <glyph glyph-name="eth" unicode="&#xf0;" horiz-adv-x="378" 
d="M331 309v-221q0 -88 -94 -88h-106q-93 0 -93 88v239q0 89 93 89h91q-17 50 -48 98l-95 -34v55l62 22q-33 39 -71 69h125q23 -23 34 -37l89 32v-55l-57 -21q70 -108 70 -236zM241 102v198q0 22 -3 45h-80q-18 0 -24 -5.5t-6 -23.5v-214q0 -18 6 -23.5t24 -5.5h53
q18 0 24 5.5t6 23.5z" />
    <glyph glyph-name="ntilde" unicode="&#xf1;" horiz-adv-x="365" 
d="M196 488h35q91 0 91 -89v-399h-90v386q0 18 -6 23.5t-24 5.5h-35q-18 0 -25.5 -8t-7.5 -27v-380h-90v488h90v-39q13 39 62 39zM112 549v-15h-78v22q0 40 18 60t60 20h9q25 0 56.5 -19t41.5 -19t14 4.5t4 19.5v14h77v-23q0 -39 -17 -59t-60 -20h-7q-26 0 -59 19t-42 19
q-17 0 -17 -23z" />
    <glyph glyph-name="ograve" unicode="&#xf2;" horiz-adv-x="370" 
d="M131 488h107q93 0 93 -89v-311q0 -88 -93 -88h-107q-92 0 -92 88v311q0 89 92 89zM242 101v286q0 18 -6 24t-24 6h-55q-18 0 -23.5 -6t-5.5 -24v-286q0 -18 5.5 -24t23.5 -6h55q18 0 24 6t6 24zM220 519h-77l-105 132h100z" />
    <glyph glyph-name="oacute" unicode="&#xf3;" horiz-adv-x="370" 
d="M131 488h107q93 0 93 -89v-311q0 -88 -93 -88h-107q-92 0 -92 88v311q0 89 92 89zM242 101v286q0 18 -6 24t-24 6h-55q-18 0 -23.5 -6t-5.5 -24v-286q0 -18 5.5 -24t23.5 -6h55q18 0 24 6t6 24zM326 651l-105 -132h-77l82 132h100z" />
    <glyph glyph-name="ocircumflex" unicode="&#xf4;" horiz-adv-x="370" 
d="M131 488h107q93 0 93 -89v-311q0 -88 -93 -88h-107q-92 0 -92 88v311q0 89 92 89zM242 101v286q0 18 -6 24t-24 6h-55q-18 0 -23.5 -6t-5.5 -24v-286q0 -18 5.5 -24t23.5 -6h55q18 0 24 6t6 24zM183 600l-52 -81h-94l96 132h101l95 -132h-93z" />
    <glyph glyph-name="otilde" unicode="&#xf5;" horiz-adv-x="370" 
d="M131 488h107q93 0 93 -89v-311q0 -88 -93 -88h-107q-92 0 -92 88v311q0 89 92 89zM242 101v286q0 18 -6 24t-24 6h-55q-18 0 -23.5 -6t-5.5 -24v-286q0 -18 5.5 -24t23.5 -6h55q18 0 24 6t6 24zM116 549v-15h-78v22q0 40 18 60t60 20h9q25 0 56.5 -19t41.5 -19t14 4.5
t4 19.5v14h77v-23q0 -39 -17 -59t-60 -20h-7q-26 0 -59 19t-42 19q-17 0 -17 -23z" />
    <glyph glyph-name="odieresis" unicode="&#xf6;" horiz-adv-x="370" 
d="M131 488h107q93 0 93 -89v-311q0 -88 -93 -88h-107q-92 0 -92 88v311q0 89 92 89zM242 101v286q0 18 -6 24t-24 6h-55q-18 0 -23.5 -6t-5.5 -24v-286q0 -18 5.5 -24t23.5 -6h55q18 0 24 6t6 24zM141 635v-94h-102v94h102zM330 635v-94h-101v94h101z" />
    <glyph glyph-name="divide" unicode="&#xf7;" horiz-adv-x="412" 
d="M161 212h90v-87h-90v87zM161 501h90v-88h-90v88zM25 276v74h362v-74h-362z" />
    <glyph glyph-name="oslash" unicode="&#xf8;" horiz-adv-x="378" 
d="M335 399v-311q0 -88 -93 -88h-107q-17 0 -30 3l-11 -23h-53l21 46q-19 22 -19 62v311q0 89 92 89h107q16 0 31 -3l10 23h54l-21 -46q19 -22 19 -63zM129 392v-220l112 245q-5 5 -23 5h-58q-19 0 -25 -5.5t-6 -24.5zM248 96v219l-112 -244q6 -5 24 -5h58q19 0 24.5 5.5
t5.5 24.5z" />
    <glyph glyph-name="ugrave" unicode="&#xf9;" horiz-adv-x="365" 
d="M231 488h90v-488h-90v39q-13 -39 -62 -39h-36q-90 0 -90 88v400h90v-386q0 -18 6 -23.5t24 -5.5h35q18 0 25.5 8t7.5 27v380zM223 519h-77l-105 132h100z" />
    <glyph glyph-name="uacute" unicode="&#xfa;" horiz-adv-x="365" 
d="M231 488h90v-488h-90v39q-13 -39 -62 -39h-36q-90 0 -90 88v400h90v-386q0 -18 6 -23.5t24 -5.5h35q18 0 25.5 8t7.5 27v380zM325 651l-105 -132h-77l82 132h100z" />
    <glyph glyph-name="ucircumflex" unicode="&#xfb;" horiz-adv-x="361" 
d="M231 488h90v-488h-90v39q-13 -39 -62 -39h-36q-90 0 -90 88v400h90v-386q0 -18 6 -23.5t24 -5.5h35q18 0 25.5 8t7.5 27v380zM178 600l-52 -81h-94l96 132h101l95 -132h-93z" />
    <glyph glyph-name="udieresis" unicode="&#xfc;" horiz-adv-x="364" 
d="M222 635h101v-94h-101v94zM231 488h90v-488h-90v39q-13 -39 -62 -39h-36q-90 0 -90 88v400h90v-386q0 -18 6 -23.5t24 -5.5h35q18 0 25.5 8t7.5 27v380zM134 635v-94h-102v94h102z" />
    <glyph glyph-name="yacute" unicode="&#xfd;" horiz-adv-x="342" 
d="M136 519l82 132h100l-105 -132h-77zM116 -138h-60v72h41q43 0 52 33l10 41h-49l-102 480h92l74 -409l69 409h91l-103 -535q-22 -91 -115 -91z" />
    <glyph glyph-name="thorn" unicode="&#xfe;" horiz-adv-x="362" 
d="M195 488h35q91 0 91 -89v-311q0 -88 -91 -88h-35q-49 0 -62 36v-174h-90v807h89v-220q13 39 63 39zM230 102v284q0 18 -5.5 23.5t-23.5 5.5h-36q-32 0 -32 -35v-272q0 -35 32 -35h36q18 0 23.5 5.5t5.5 23.5z" />
    <glyph glyph-name="ydieresis" unicode="&#xff;" horiz-adv-x="349" 
d="M116 -138h-60v72h41q43 0 52 33l10 41h-49l-102 480h92l74 -409l69 409h91l-103 -535q-22 -91 -115 -91zM215 541v94h101v-94h-101zM25 541v94h102v-94h-102z" />
    <glyph glyph-name="Amacron" unicode="&#x100;" horiz-adv-x="385" 
d="M282 0l-25 145h-132l-23 -145h-90l111 626h131l119 -626h-91zM136 218h109l-57 330zM322 726v-68h-268v68h268z" />
    <glyph glyph-name="amacron" unicode="&#x101;" horiz-adv-x="360" 
d="M226 488h90v-488h-90v39q-13 -39 -62 -39h-36q-90 0 -90 88v311q0 89 90 89h36q49 0 62 -39v39zM158 73h35q18 0 25.5 8t7.5 27v272q0 19 -7.5 27t-25.5 8h-35q-18 0 -24 -5.5t-6 -23.5v-284q0 -18 6 -23.5t24 -5.5zM310 619v-68h-268v68h268z" />
    <glyph glyph-name="Abreve" unicode="&#x102;" horiz-adv-x="385" 
d="M282 0l-25 145h-132l-23 -145h-90l111 626h131l119 -626h-91zM136 218h109l-57 330zM239 657h-101q-94 0 -94 89v43h84v-38q0 -18 6 -23.5t24 -5.5h61q18 0 24 5.5t6 23.5v38h84v-43q0 -89 -94 -89z" />
    <glyph glyph-name="abreve" unicode="&#x103;" horiz-adv-x="360" 
d="M243 651h84v-43q0 -89 -94 -89h-101q-94 0 -94 89v43h84v-38q0 -18 6 -23.5t24 -5.5h61q18 0 24 5.5t6 23.5v38zM226 488h90v-488h-90v39q-13 -39 -62 -39h-36q-90 0 -90 88v311q0 89 90 89h36q49 0 62 -39v39zM158 73h35q18 0 25.5 8t7.5 27v272q0 19 -7.5 27t-25.5 8
h-35q-18 0 -24 -5.5t-6 -23.5v-284q0 -18 6 -23.5t24 -5.5z" />
    <glyph glyph-name="Aogonek" unicode="&#x104;" horiz-adv-x="385" 
d="M310 -162h81v-63h-97q-86 0 -86 84v33q0 85 86 85h8v23h-20l-25 145h-132l-23 -145h-90l111 626h131l117 -615h2v-97h-63q-18 0 -23.5 -5t-5.5 -22v-22q0 -17 5.5 -22t23.5 -5zM136 218h109l-57 330z" />
    <glyph glyph-name="aogonek" unicode="&#x105;" horiz-adv-x="360" 
d="M253 -162h81v-63h-97q-86 0 -86 84v33q0 85 86 85h8v23h-19v39q-13 -39 -62 -39h-36q-90 0 -90 88v311q0 89 90 89h36q49 0 62 -39v39h90v-574h-63q-18 0 -23.5 -5t-5.5 -22v-22q0 -17 5.5 -22t23.5 -5zM158 73h35q18 0 25.5 8t7.5 27v272q0 19 -7.5 27t-25.5 8h-35
q-18 0 -24 -5.5t-6 -23.5v-284q0 -18 6 -23.5t24 -5.5z" />
    <glyph glyph-name="Cacute" unicode="&#x106;" horiz-adv-x="377" 
d="M340 430h-92v96q0 18 -5.5 23.5t-23.5 5.5h-51q-18 0 -24 -5.5t-6 -23.5v-427q0 -18 6 -23.5t24 -5.5h51q18 0 23.5 5.5t5.5 23.5v95h92v-106q0 -89 -94 -89h-106q-93 0 -93 89v450q0 88 93 88h106q94 0 94 -88v-108zM336 789l-105 -132h-77l82 132h100z" />
    <glyph glyph-name="cacute" unicode="&#x107;" horiz-adv-x="351" 
d="M131 488h95q94 0 94 -89v-65h-89v52q0 18 -6 23.5t-24 5.5h-43q-18 0 -24 -5.5t-6 -23.5v-284q0 -18 6 -23.5t24 -5.5h43q18 0 24 5.5t6 23.5v52h89v-66q0 -88 -94 -88h-95q-93 0 -93 88v311q0 89 93 89zM321 651l-105 -132h-77l82 132h100z" />
    <glyph glyph-name="Ccaron" unicode="&#x10c;" horiz-adv-x="377" 
d="M340 430h-92v96q0 18 -5.5 23.5t-23.5 5.5h-51q-18 0 -24 -5.5t-6 -23.5v-427q0 -18 6 -23.5t24 -5.5h51q18 0 23.5 5.5t5.5 23.5v95h92v-106q0 -89 -94 -89h-106q-93 0 -93 89v450q0 88 93 88h106q94 0 94 -88v-108zM244 657h-101l-96 132h94l52 -81l53 81h93z" />
    <glyph glyph-name="ccaron" unicode="&#x10d;" horiz-adv-x="351" 
d="M131 488h95q94 0 94 -89v-65h-89v52q0 18 -6 23.5t-24 5.5h-43q-18 0 -24 -5.5t-6 -23.5v-284q0 -18 6 -23.5t24 -5.5h43q18 0 24 5.5t6 23.5v52h89v-66q0 -88 -94 -88h-95q-93 0 -93 88v311q0 89 93 89zM230 519h-101l-96 132h94l52 -81l53 81h93z" />
    <glyph glyph-name="Dcaron" unicode="&#x10e;" horiz-adv-x="412" 
d="M54 626h218q93 0 93 -88v-450q0 -88 -93 -88h-218v626zM274 100v426q0 18 -6 23.5t-24 5.5h-99v-484h99q18 0 24 5.5t6 23.5zM254 657h-101l-96 132h94l52 -81l53 81h93z" />
    <glyph glyph-name="dcaron" unicode="&#x10f;" horiz-adv-x="389" 
d="M360 669h73v-47l-44 -124h-29v171zM226 669h90v-669h-90v39q-13 -39 -62 -39h-36q-90 0 -90 88v312q0 89 90 89h36q49 0 62 -39v219zM158 73h35q18 0 25.5 8t7.5 27v273q0 19 -7.5 27t-25.5 8h-35q-18 0 -24 -6t-6 -23v-285q0 -18 6 -23.5t24 -5.5z" />
    <glyph glyph-name="Dcroat" unicode="&#x110;" horiz-adv-x="414" 
d="M54 626h218q93 0 93 -88v-450q0 -88 -93 -88h-218v280h-51v71h51v275zM274 102v422q0 18 -6 23.5t-24 5.5h-99v-202h75v-71h-75v-207h99q18 0 24 5.5t6 23.5z" />
    <glyph glyph-name="dcroat" unicode="&#x111;" horiz-adv-x="365" 
d="M367 607v-62h-46v-545h-90v39q-13 -39 -62 -39h-36q-90 0 -90 88v311q0 89 90 89h36q49 0 62 -39v96h-80v62h80v62h90v-62h46zM163 73h35q18 0 25.5 8t7.5 27v272q0 19 -7.5 27t-25.5 8h-35q-18 0 -24 -5.5t-6 -23.5v-284q0 -18 6 -23.5t24 -5.5z" />
    <glyph glyph-name="Emacron" unicode="&#x112;" horiz-adv-x="343" 
d="M143 73h181v-73h-272v626h265v-73h-174v-193h144v-73h-144v-214zM317 739v-68h-268v68h268z" />
    <glyph glyph-name="emacron" unicode="&#x113;" horiz-adv-x="360" 
d="M135 488h98q94 0 94 -89v-183h-197v-116q0 -17 6 -23t24 -6h46q18 0 24 6t6 24v40h88v-53q0 -88 -93 -88h-96q-93 0 -93 88v311q0 89 93 89zM130 282h108v106q0 17 -5.5 23t-23.5 6h-49q-18 0 -24 -6t-6 -23v-106zM313 619v-68h-268v68h268z" />
    <glyph glyph-name="Edotaccent" unicode="&#x116;" horiz-adv-x="343" 
d="M143 73h181v-73h-272v626h265v-73h-174v-193h144v-73h-144v-214zM246 753v-96h-107v96h107z" />
    <glyph glyph-name="edotaccent" unicode="&#x117;" horiz-adv-x="360" 
d="M135 488h98q94 0 94 -89v-183h-197v-116q0 -17 6 -23t24 -6h46q18 0 24 6t6 24v40h88v-53q0 -88 -93 -88h-96q-93 0 -93 88v311q0 89 93 89zM130 282h108v106q0 17 -5.5 23t-23.5 6h-49q-18 0 -24 -6t-6 -23v-106zM241 633v-96h-107v96h107z" />
    <glyph glyph-name="Eogonek" unicode="&#x118;" horiz-adv-x="343" 
d="M261 -162h81v-63h-97q-86 0 -86 84v33q0 85 86 85h8v23h-201v626h265v-73h-174v-193h144v-73h-144v-214h181v-159h-63q-18 0 -23.5 -5t-5.5 -22v-22q0 -17 5.5 -22t23.5 -5z" />
    <glyph glyph-name="eogonek" unicode="&#x119;" horiz-adv-x="360" 
d="M135 488h98q94 0 94 -89v-183h-197v-116q0 -17 6 -23t24 -6h46q18 0 24 6t6 24v40h88v-53q0 -88 -93 -88h-5v-86h-63q-18 0 -23.5 -5t-5.5 -22v-22q0 -17 5.5 -22t23.5 -5h81v-63h-97q-86 0 -86 84v33q0 85 86 85h8v23h-20q-93 0 -93 88v311q0 89 93 89zM130 282h108v106
q0 17 -5.5 23t-23.5 6h-49q-18 0 -24 -6t-6 -23v-106z" />
    <glyph glyph-name="Ecaron" unicode="&#x11a;" horiz-adv-x="343" 
d="M143 287v-214h181v-73h-272v626h265v-73h-174v-193h144v-73h-144zM235 657h-101l-96 132h94l52 -81l53 81h93z" />
    <glyph glyph-name="ecaron" unicode="&#x11b;" horiz-adv-x="360" 
d="M135 488h98q94 0 94 -89v-183h-197v-116q0 -17 6 -23t24 -6h46q18 0 24 6t6 24v40h88v-53q0 -88 -93 -88h-96q-93 0 -93 88v311q0 89 93 89zM130 282h108v106q0 17 -5.5 23t-23.5 6h-49q-18 0 -24 -6t-6 -23v-106zM235 519h-101l-96 132h94l52 -81l53 81h93z" />
    <glyph glyph-name="Gbreve" unicode="&#x11e;" horiz-adv-x="382" 
d="M340 443h-91v83q0 18 -6 23.5t-24 5.5h-51q-18 0 -24 -5.5t-6 -23.5v-427q0 -18 6 -23.5t24 -5.5h51q18 0 24 5.5t6 23.5v153h-50v70h141v-234q0 -89 -93 -89h-107q-93 0 -93 89v450q0 88 93 88h107q93 0 93 -88v-95zM244 657h-101q-94 0 -94 89v43h84v-38q0 -18 6 -23.5
t24 -5.5h61q18 0 24 5.5t6 23.5v38h84v-43q0 -89 -94 -89z" />
    <glyph glyph-name="gbreve" unicode="&#x11f;" horiz-adv-x="360" 
d="M240 651h84v-43q0 -89 -94 -89h-101q-94 0 -94 89v43h84v-38q0 -18 6 -23.5t24 -5.5h61q18 0 24 5.5t6 23.5v38zM226 488h90v-538q0 -88 -94 -88h-167v71h141q18 0 24 6t6 23v83q-13 -39 -62 -39h-36q-90 0 -90 89v304q0 89 90 89h36q49 0 62 -39v39zM158 79h35
q18 0 25.5 8t7.5 27v266q0 19 -7.5 27t-25.5 8h-35q-18 0 -24 -5.5t-6 -23.5v-278q0 -17 6 -23t24 -6z" />
    <glyph glyph-name="uni0122" unicode="&#x122;" horiz-adv-x="382" 
d="M340 443h-91v83q0 18 -6 23.5t-24 5.5h-51q-18 0 -24 -5.5t-6 -23.5v-427q0 -18 6 -23.5t24 -5.5h51q18 0 24 5.5t6 23.5v153h-50v70h141v-234q0 -89 -93 -89h-107q-93 0 -93 89v450q0 88 93 88h107q93 0 93 -88v-95zM148 -229v179h99v-49l-66 -130h-33z" />
    <glyph glyph-name="uni0123" unicode="&#x123;" horiz-adv-x="360" 
d="M226 488h90v-538q0 -88 -94 -88h-167v71h141q18 0 24 6t6 23v83q-13 -39 -62 -39h-36q-90 0 -90 89v304q0 89 90 89h36q49 0 62 -39v39zM158 79h35q18 0 25.5 8t7.5 27v266q0 19 -7.5 27t-25.5 8h-35q-18 0 -24 -5.5t-6 -23.5v-278q0 -17 6 -23t24 -6zM236 699v-180h-98
v49l66 131h32z" />
    <glyph glyph-name="Imacron" unicode="&#x12a;" horiz-adv-x="210" 
d="M-30 671v68h268v-68h-268zM60 626h90v-626h-90v626z" />
    <glyph glyph-name="imacron" unicode="&#x12b;" horiz-adv-x="178" 
d="M-45 551v68h268v-68h-268zM134 0h-90v488h90v-488z" />
    <glyph glyph-name="Iogonek" unicode="&#x12e;" horiz-adv-x="210" 
d="M87 -162h81v-63h-97q-86 0 -86 84v33q0 85 86 85h8v23h-19v626h90v-712h-63q-18 0 -23.5 -5t-5.5 -22v-22q0 -17 5.5 -22t23.5 -5z" />
    <glyph glyph-name="iogonek" unicode="&#x12f;" horiz-adv-x="178" 
d="M71 -162h81v-63h-97q-86 0 -86 84v33q0 85 86 85h8v23h-19v488h90v-574h-63q-18 0 -23.5 -5t-5.5 -22v-22q0 -17 5.5 -22t23.5 -5zM136 670v-89h-94v89h94z" />
    <glyph glyph-name="Idotaccent" unicode="&#x130;" horiz-adv-x="210" 
d="M51 670v96h107v-96h-107zM60 626h90v-626h-90v626z" />
    <glyph glyph-name="dotlessi" unicode="&#x131;" horiz-adv-x="178" 
d="M134 0h-90v488h90v-488z" />
    <glyph glyph-name="uni0136" unicode="&#x136;" horiz-adv-x="384" 
d="M374 626l-132 -314l131 -312h-98l-127 312l129 314h97zM148 -229v179h98v-49l-66 -130h-32zM52 0v626h90v-626h-90z" />
    <glyph glyph-name="uni0137" unicode="&#x137;" horiz-adv-x="357" 
d="M354 488l-112 -233l112 -255h-96l-108 255l108 233h96zM137 -229v179h98v-49l-66 -130h-32zM44 0v669h90v-669h-90z" />
    <glyph glyph-name="Lacute" unicode="&#x139;" horiz-adv-x="301" 
d="M142 73h155v-73h-245v626h90v-553zM241 789l-105 -132h-77l82 132h100z" />
    <glyph glyph-name="lacute" unicode="&#x13a;" horiz-adv-x="178" 
d="M134 0h-90v669h90v-669zM50 700l82 132h100l-105 -132h-77z" />
    <glyph glyph-name="uni013B" unicode="&#x13b;" horiz-adv-x="301" 
d="M142 73h155v-73h-245v626h90v-553zM124 -229v179h98v-49l-66 -130h-32z" />
    <glyph glyph-name="uni013C" unicode="&#x13c;" horiz-adv-x="178" 
d="M40 -50h98v-49l-66 -130h-32v179zM134 0h-90v669h90v-669z" />
    <glyph glyph-name="Lcaron" unicode="&#x13d;" horiz-adv-x="301" 
d="M142 73h155v-73h-245v626h90v-553zM241 794l-95 -132h-101l-96 132h94l52 -81l53 81h93z" />
    <glyph glyph-name="lcaron" unicode="&#x13e;" horiz-adv-x="210" 
d="M134 0h-90v669h90v-669zM178 669h73v-47l-43 -124h-30v171z" />
    <glyph glyph-name="Lslash" unicode="&#x141;" horiz-adv-x="309" 
d="M144 73h155v-73h-245v253l-76 -36v71l76 35v303h90v-261l100 47v-70l-100 -47v-222z" />
    <glyph glyph-name="lslash" unicode="&#x142;" horiz-adv-x="188" 
d="M139 0h-90v304l-83 -39v71l83 39v294h90v-253l94 44v-70l-94 -44v-346z" />
    <glyph glyph-name="Nacute" unicode="&#x143;" horiz-adv-x="410" 
d="M275 626h83v-626h-91l-132 452v-452h-83v626h95l128 -439v439zM167 657l82 132h100l-105 -132h-77z" />
    <glyph glyph-name="nacute" unicode="&#x144;" horiz-adv-x="365" 
d="M196 488h35q91 0 91 -89v-399h-90v386q0 18 -6 23.5t-24 5.5h-35q-18 0 -25.5 -8t-7.5 -27v-380h-90v488h90v-39q13 39 62 39zM323 651l-105 -132h-77l82 132h100z" />
    <glyph glyph-name="uni0145" unicode="&#x145;" horiz-adv-x="410" 
d="M147 -50h98v-49l-66 -130h-32v179zM275 626h83v-626h-91l-132 452v-452h-83v626h95l128 -439v439z" />
    <glyph glyph-name="uni0146" unicode="&#x146;" horiz-adv-x="365" 
d="M196 488h35q91 0 91 -89v-399h-90v386q0 18 -6 23.5t-24 5.5h-35q-18 0 -25.5 -8t-7.5 -27v-380h-90v488h90v-39q13 39 62 39zM130 -229v179h99v-49l-66 -130h-33z" />
    <glyph glyph-name="Ncaron" unicode="&#x147;" horiz-adv-x="410" 
d="M275 626h83v-626h-91l-132 452v-452h-83v626h95l128 -439v439zM157 657l-96 132h94l52 -81l53 81h93l-95 -132h-101z" />
    <glyph glyph-name="ncaron" unicode="&#x148;" horiz-adv-x="365" 
d="M196 488h35q91 0 91 -89v-399h-90v386q0 18 -6 23.5t-24 5.5h-35q-18 0 -25.5 -8t-7.5 -27v-380h-90v488h90v-39q13 39 62 39zM226 519h-101l-96 132h94l52 -81l53 81h93z" />
    <glyph glyph-name="Omacron" unicode="&#x14c;" horiz-adv-x="393" 
d="M141 626h111q93 0 93 -88v-450q0 -88 -93 -88h-111q-94 0 -94 88v450q0 88 94 88zM255 102v422q0 18 -6 23.5t-24 5.5h-58q-18 0 -23.5 -5.5t-5.5 -23.5v-422q0 -18 5.5 -23.5t23.5 -5.5h58q18 0 24 5.5t6 23.5zM330 726v-68h-268v68h268z" />
    <glyph glyph-name="omacron" unicode="&#x14d;" horiz-adv-x="370" 
d="M131 488h107q93 0 93 -89v-311q0 -88 -93 -88h-107q-92 0 -92 88v311q0 89 92 89zM242 101v286q0 18 -6 24t-24 6h-55q-18 0 -23.5 -6t-5.5 -24v-286q0 -18 5.5 -24t23.5 -6h55q18 0 24 6t6 24zM316 619v-68h-268v68h268z" />
    <glyph glyph-name="Ohungarumlaut" unicode="&#x150;" horiz-adv-x="389" 
d="M141 626h111q93 0 93 -88v-450q0 -88 -93 -88h-111q-94 0 -94 88v450q0 88 94 88zM255 102v422q0 18 -6 23.5t-24 5.5h-58q-18 0 -23.5 -5.5t-5.5 -23.5v-422q0 -18 5.5 -23.5t23.5 -5.5h58q18 0 24 5.5t6 23.5zM275 789l-106 -132h-66l82 132h90zM288 657h-66l82 132h90
z" />
    <glyph glyph-name="ohungarumlaut" unicode="&#x151;" horiz-adv-x="370" 
d="M131 488h107q93 0 93 -89v-311q0 -88 -93 -88h-107q-92 0 -92 88v311q0 89 92 89zM242 101v286q0 18 -6 24t-24 6h-55q-18 0 -23.5 -6t-5.5 -24v-286q0 -18 5.5 -24t23.5 -6h55q18 0 24 6t6 24zM263 651l-106 -132h-66l82 132h90zM276 519h-66l82 132h90z" />
    <glyph glyph-name="OE" unicode="&#x152;" horiz-adv-x="564" 
d="M356 71h181v-71h-254v19q-21 -19 -59 -19h-78q-93 0 -93 88v450q0 88 93 88h77q38 0 60 -19v19h247v-71h-174v-196h144v-71h-144v-217zM261 100v426q0 18 -6 23.5t-24 5.5h-58q-18 0 -23.5 -5.5t-5.5 -23.5v-426q0 -18 5.5 -23.5t23.5 -5.5h58q18 0 24 5.5t6 23.5z" />
    <glyph glyph-name="oe" unicode="&#x153;" horiz-adv-x="584" 
d="M344 488h78q93 0 93 -89v-184h-195v-114q0 -18 5.5 -23.5t23.5 -5.5h45q18 0 24 5.5t6 23.5v40h89v-53q0 -88 -93 -88h-77q-26 0 -45 12t-26 30q-6 -18 -24.5 -30t-44.5 -12h-70q-90 0 -90 88v311q0 89 90 89h71q25 0 44 -12.5t25 -29.5q6 18 25 30t46 12zM198 415h-35
q-18 0 -24 -5.5t-6 -23.5v-284q0 -18 6 -23.5t24 -5.5h35q16 0 24 6.5t9 23.5v282q-3 30 -33 30zM320 283h106v104q0 18 -5.5 23.5t-23.5 5.5h-48q-18 0 -23.5 -5.5t-5.5 -23.5v-104z" />
    <glyph glyph-name="Racute" unicode="&#x154;" horiz-adv-x="396" 
d="M142 253v-253h-90v626h205q93 0 93 -88v-196q0 -76 -67 -87l99 -255h-97l-94 253h-49zM142 553v-228h88q18 0 24 5.5t6 23.5v170q0 18 -6 23.5t-24 5.5h-88zM336 789l-105 -132h-77l82 132h100z" />
    <glyph glyph-name="racute" unicode="&#x155;" horiz-adv-x="238" 
d="M134 488v-60q8 26 28.5 43.5t50.5 17.5h20v-78h-36q-63 0 -63 -74v-337h-90v488h90zM285 651l-105 -132h-77l82 132h100z" />
    <glyph glyph-name="uni0156" unicode="&#x156;" horiz-adv-x="396" 
d="M142 253v-253h-90v626h205q93 0 93 -88v-196q0 -76 -67 -87l99 -255h-97l-94 253h-49zM142 553v-228h88q18 0 24 5.5t6 23.5v170q0 18 -6 23.5t-24 5.5h-88zM151 -229v179h99v-49l-66 -130h-33z" />
    <glyph glyph-name="uni0157" unicode="&#x157;" horiz-adv-x="238" 
d="M213 489h20v-78h-36q-63 0 -63 -74v-337h-90v488h90v-60q8 26 28.5 43.5t50.5 17.5zM42 -229v179h98v-49l-66 -130h-32z" />
    <glyph glyph-name="Rcaron" unicode="&#x158;" horiz-adv-x="396" 
d="M142 253v-253h-90v626h205q93 0 93 -88v-196q0 -76 -67 -87l99 -255h-97l-94 253h-49zM142 553v-228h88q18 0 24 5.5t6 23.5v170q0 18 -6 23.5t-24 5.5h-88zM247 657h-101l-96 132h94l52 -81l53 81h93z" />
    <glyph glyph-name="rcaron" unicode="&#x159;" horiz-adv-x="238" 
d="M134 488v-60q8 26 28.5 43.5t50.5 17.5h20v-78h-36q-63 0 -63 -74v-337h-90v488h90zM189 519h-101l-96 132h94l52 -81l53 81h93z" />
    <glyph glyph-name="Sacute" unicode="&#x15a;" horiz-adv-x="361" 
d="M232 102v153q0 18 -5.5 23.5t-23.5 5.5h-74q-91 0 -91 89v165q0 88 93 88h98q93 0 93 -88v-92h-91v78q0 18 -6 23.5t-24 5.5h-42q-18 0 -24 -5.5t-6 -23.5v-139q0 -18 6 -23.5t24 -5.5h73q92 0 92 -88v-180q0 -88 -94 -88h-97q-93 0 -93 88v92h91v-78q0 -18 6 -23.5
t24 -5.5h42q18 0 23.5 5.5t5.5 23.5zM142 657l82 132h100l-105 -132h-77z" />
    <glyph glyph-name="sacute" unicode="&#x15b;" horiz-adv-x="328" 
d="M207 98v81q0 18 -6 23.5t-24 5.5h-51q-93 0 -93 88v103q0 89 93 89h73q94 0 94 -89v-47h-88v38q0 18 -6 23.5t-24 5.5h-24q-18 0 -24 -5.5t-6 -23.5v-84q0 -18 6 -23.5t24 -5.5h52q92 0 92 -89v-100q0 -88 -93 -88h-74q-93 0 -93 88v48h88v-38q0 -18 6 -23.5t24 -5.5h24
q18 0 24 5.5t6 23.5zM133 519l82 132h100l-105 -132h-77z" />
    <glyph glyph-name="uni015E" unicode="&#x15e;" horiz-adv-x="361" 
d="M133 -50h98v-49l-66 -130h-32v179zM232 102v153q0 18 -5.5 23.5t-23.5 5.5h-74q-91 0 -91 89v165q0 88 93 88h98q93 0 93 -88v-92h-91v78q0 18 -6 23.5t-24 5.5h-42q-18 0 -24 -5.5t-6 -23.5v-139q0 -18 6 -23.5t24 -5.5h73q92 0 92 -88v-180q0 -88 -94 -88h-97
q-93 0 -93 88v92h91v-78q0 -18 6 -23.5t24 -5.5h42q18 0 23.5 5.5t5.5 23.5z" />
    <glyph glyph-name="uni015F" unicode="&#x15f;" horiz-adv-x="328" 
d="M114 -50h99v-49l-66 -130h-33v179zM207 98v81q0 18 -6 23.5t-24 5.5h-51q-93 0 -93 88v103q0 89 93 89h73q94 0 94 -89v-47h-88v38q0 18 -6 23.5t-24 5.5h-24q-18 0 -24 -5.5t-6 -23.5v-84q0 -18 6 -23.5t24 -5.5h52q92 0 92 -89v-100q0 -88 -93 -88h-74q-93 0 -93 88v48
h88v-38q0 -18 6 -23.5t24 -5.5h24q18 0 24 5.5t6 23.5z" />
    <glyph glyph-name="Scaron" unicode="&#x160;" horiz-adv-x="361" 
d="M232 102v153q0 18 -5.5 23.5t-23.5 5.5h-74q-91 0 -91 89v165q0 88 93 88h98q93 0 93 -88v-92h-91v78q0 18 -6 23.5t-24 5.5h-42q-18 0 -24 -5.5t-6 -23.5v-139q0 -18 6 -23.5t24 -5.5h73q92 0 92 -88v-180q0 -88 -94 -88h-97q-93 0 -93 88v92h91v-78q0 -18 6 -23.5
t24 -5.5h42q18 0 23.5 5.5t5.5 23.5zM131 657l-96 132h94l52 -81l53 81h93l-95 -132h-101z" />
    <glyph glyph-name="scaron" unicode="&#x161;" horiz-adv-x="328" 
d="M207 98v81q0 18 -6 23.5t-24 5.5h-51q-93 0 -93 88v103q0 89 93 89h73q94 0 94 -89v-47h-88v38q0 18 -6 23.5t-24 5.5h-24q-18 0 -24 -5.5t-6 -23.5v-84q0 -18 6 -23.5t24 -5.5h52q92 0 92 -89v-100q0 -88 -93 -88h-74q-93 0 -93 88v48h88v-38q0 -18 6 -23.5t24 -5.5h24
q18 0 24 5.5t6 23.5zM112 519l-96 132h94l52 -81l53 81h93l-95 -132h-101z" />
    <glyph glyph-name="uni0162" unicode="&#x162;" horiz-adv-x="310" 
d="M5 626h300v-73h-105v-553h-90v553h-105v73zM105 -229v179h98v-49l-66 -130h-32z" />
    <glyph glyph-name="uni0163" unicode="&#x163;" horiz-adv-x="310" 
d="M5 626h300v-73h-105v-553h-90v553h-105v73zM107 -229v179h98v-49l-66 -130h-32z" />
    <glyph glyph-name="Tcaron" unicode="&#x164;" horiz-adv-x="310" 
d="M305 626v-73h-105v-553h-90v553h-105v73h300zM206 657h-101l-96 132h94l52 -81l53 81h93z" />
    <glyph glyph-name="tcaron" unicode="&#x165;" horiz-adv-x="219" 
d="M184 669h85v-47l-56 -104h-29v151zM142 571v-83h67v-73h-67v-309q0 -18 5.5 -23.5t23.5 -5.5h38v-77h-64q-94 0 -94 88v327h-46v73h46v83h91z" />
    <glyph glyph-name="Umacron" unicode="&#x16a;" horiz-adv-x="397" 
d="M257 626h91v-538q0 -88 -94 -88h-111q-94 0 -94 88v538h91v-524q0 -18 6 -23.5t24 -5.5h57q19 0 24.5 5.5t5.5 23.5v524zM333 726v-68h-268v68h268z" />
    <glyph glyph-name="umacron" unicode="&#x16b;" horiz-adv-x="365" 
d="M231 488h90v-488h-90v39q-13 -39 -62 -39h-36q-90 0 -90 88v400h90v-386q0 -18 6 -23.5t24 -5.5h35q18 0 25.5 8t7.5 27v380zM314 619v-68h-268v68h268z" />
    <glyph glyph-name="Uring" unicode="&#x16e;" horiz-adv-x="397" 
d="M257 626h91v-538q0 -88 -94 -88h-111q-94 0 -94 88v538h91v-524q0 -18 6 -23.5t24 -5.5h57q19 0 24.5 5.5t5.5 23.5v524zM230 658h-65q-73 0 -73 70v17q0 70 73 70h65q73 0 73 -70v-17q0 -70 -73 -70zM155 740v-7q0 -15 4.5 -20t21.5 -5h33q17 0 21.5 5t4.5 20v7
q0 15 -4.5 20t-21.5 5h-33q-17 0 -21.5 -5t-4.5 -20z" />
    <glyph glyph-name="uring" unicode="&#x16f;" horiz-adv-x="365" 
d="M231 488h90v-488h-90v39q-13 -39 -62 -39h-36q-90 0 -90 88v400h90v-386q0 -18 6 -23.5t24 -5.5h35q18 0 25.5 8t7.5 27v380zM217 526h-65q-73 0 -73 70v17q0 70 73 70h65q73 0 73 -70v-17q0 -70 -73 -70zM142 608v-7q0 -15 4.5 -20t21.5 -5h33q17 0 21.5 5t4.5 20v7
q0 15 -4.5 20t-21.5 5h-33q-17 0 -21.5 -5t-4.5 -20z" />
    <glyph glyph-name="Uhungarumlaut" unicode="&#x170;" horiz-adv-x="393" 
d="M257 102v524h91v-538q0 -88 -94 -88h-111q-94 0 -94 88v538h91v-524q0 -18 6 -23.5t24 -5.5h57q19 0 24.5 5.5t5.5 23.5zM273 789l-106 -132h-66l82 132h90zM286 657h-66l82 132h90z" />
    <glyph glyph-name="uhungarumlaut" unicode="&#x171;" horiz-adv-x="365" 
d="M231 488h90v-488h-90v39q-13 -39 -62 -39h-36q-90 0 -90 88v400h90v-386q0 -18 6 -23.5t24 -5.5h35q18 0 25.5 8t7.5 27v380zM249 651l-106 -132h-66l82 132h90zM262 519h-66l82 132h90z" />
    <glyph glyph-name="Uogonek" unicode="&#x172;" horiz-adv-x="397" 
d="M257 626h91v-538q0 -88 -94 -88h-12v-86h-63q-18 0 -23.5 -5t-5.5 -22v-22q0 -17 5.5 -22t23.5 -5h81v-63h-97q-86 0 -86 84v33q0 85 86 85h8v23h-28q-94 0 -94 88v538h91v-524q0 -18 6 -23.5t24 -5.5h57q19 0 24.5 5.5t5.5 23.5v524z" />
    <glyph glyph-name="uogonek" unicode="&#x173;" horiz-adv-x="365" 
d="M258 -162h81v-63h-97q-86 0 -86 84v33q0 85 86 85h8v23h-19v39q-13 -39 -62 -39h-36q-90 0 -90 88v400h90v-386q0 -18 6 -23.5t24 -5.5h35q18 0 25.5 8t7.5 27v380h90v-574h-63q-18 0 -23.5 -5t-5.5 -22v-22q0 -17 5.5 -22t23.5 -5z" />
    <glyph glyph-name="Ydieresis" unicode="&#x178;" horiz-adv-x="357" 
d="M229 0h-91v198l-134 428h92l87 -345l82 345h92l-128 -428v-198zM138 755v-94h-102v94h102zM327 755v-94h-101v94h101z" />
    <glyph glyph-name="Zacute" unicode="&#x179;" horiz-adv-x="313" 
d="M19 554v73h286v-73l-205 -481h200v-73h-292v73l205 481h-194zM309 789l-105 -132h-77l82 132h100z" />
    <glyph glyph-name="zacute" unicode="&#x17a;" horiz-adv-x="292" 
d="M278 72v-72h-264v72l169 344h-158v72h251v-72l-170 -344h172zM301 651l-105 -132h-77l82 132h100z" />
    <glyph glyph-name="Zdotaccent" unicode="&#x17b;" horiz-adv-x="313" 
d="M305 627v-73l-205 -481h200v-73h-292v73l205 481h-194v73h286zM218 753v-96h-107v96h107z" />
    <glyph glyph-name="zdotaccent" unicode="&#x17c;" horiz-adv-x="292" 
d="M278 72v-72h-264v72l169 344h-158v72h251v-72l-170 -344h172zM207 633v-96h-107v96h107z" />
    <glyph glyph-name="Zcaron" unicode="&#x17d;" horiz-adv-x="313" 
d="M19 554v73h286v-73l-205 -481h200v-73h-292v73l205 481h-194zM213 657h-101l-96 132h94l52 -81l53 81h93z" />
    <glyph glyph-name="zcaron" unicode="&#x17e;" horiz-adv-x="292" 
d="M278 72v-72h-264v72l169 344h-158v72h251v-72l-170 -344h172zM201 519h-101l-96 132h94l52 -81l53 81h93z" />
    <glyph glyph-name="florin" unicode="&#x192;" horiz-adv-x="353" 
d="M307 592h-47q-18 0 -23 -5t-7 -24l-10 -75h87v-73h-96l-61 -469q-6 -45 -26.5 -66.5t-66.5 -21.5h-74v77h47q18 0 23 5t7 24l58 451h-65v73h75l12 93q6 45 26.5 66.5t66.5 21.5h74v-77z" />
    <glyph glyph-name="uni0218" unicode="&#x218;" horiz-adv-x="361" 
d="M133 -50h98v-49l-66 -130h-32v179zM232 102v153q0 18 -5.5 23.5t-23.5 5.5h-74q-91 0 -91 89v165q0 88 93 88h98q93 0 93 -88v-92h-91v78q0 18 -6 23.5t-24 5.5h-42q-18 0 -24 -5.5t-6 -23.5v-139q0 -18 6 -23.5t24 -5.5h73q92 0 92 -88v-180q0 -88 -94 -88h-97
q-93 0 -93 88v92h91v-78q0 -18 6 -23.5t24 -5.5h42q18 0 23.5 5.5t5.5 23.5z" />
    <glyph glyph-name="uni0219" unicode="&#x219;" horiz-adv-x="328" 
d="M126 -50h98v-49l-66 -130h-32v179zM207 98v81q0 18 -6 23.5t-24 5.5h-51q-93 0 -93 88v103q0 89 93 89h73q94 0 94 -89v-47h-88v38q0 18 -6 23.5t-24 5.5h-24q-18 0 -24 -5.5t-6 -23.5v-84q0 -18 6 -23.5t24 -5.5h52q92 0 92 -89v-100q0 -88 -93 -88h-74q-93 0 -93 88v48
h88v-38q0 -18 6 -23.5t24 -5.5h24q18 0 24 5.5t6 23.5z" />
    <glyph glyph-name="uni021A" unicode="&#x21a;" horiz-adv-x="310" 
d="M5 626h300v-73h-105v-553h-90v553h-105v73zM107 -229v179h99v-49l-66 -130h-33z" />
    <glyph glyph-name="uni021B" unicode="&#x21b;" horiz-adv-x="219" 
d="M209 415h-67v-309q0 -18 5.5 -23.5t23.5 -5.5h38v-77h-64q-94 0 -94 88v327h-46v73h46v83h91v-83h67v-73zM79 -229v179h98v-49l-66 -130h-32z" />
    <glyph glyph-name="circumflex" unicode="&#x2c6;" horiz-adv-x="421" 
d="M64 519l96 132h101l95 -132h-93l-53 81l-52 -81h-94z" />
    <glyph glyph-name="caron" unicode="&#x2c7;" horiz-adv-x="421" 
d="M160 519l-96 132h94l52 -81l53 81h93l-95 -132h-101z" />
    <glyph glyph-name="uni02C9" unicode="&#x2c9;" horiz-adv-x="421" 
d="M76 551v68h268v-68h-268z" />
    <glyph glyph-name="breve" unicode="&#x2d8;" horiz-adv-x="421" 
d="M271 651h84v-43q0 -89 -94 -89h-101q-94 0 -94 89v43h84v-38q0 -18 6 -23.5t24 -5.5h61q18 0 24 5.5t6 23.5v38z" />
    <glyph glyph-name="dotaccent" unicode="&#x2d9;" horiz-adv-x="421" 
d="M157 537v96h107v-96h-107z" />
    <glyph glyph-name="ring" unicode="&#x2da;" horiz-adv-x="421" 
d="M253 582v7q0 15 -4.5 20t-21.5 5h-33q-17 0 -21.5 -5t-4.5 -20v-7q0 -15 4.5 -20t21.5 -5h33q17 0 21.5 5t4.5 20zM316 594v-17q0 -70 -73 -70h-65q-73 0 -73 70v17q0 70 73 70h65q73 0 73 -70z" />
    <glyph glyph-name="ogonek" unicode="&#x2db;" horiz-adv-x="421" 
d="M222 -162h81v-63h-97q-86 0 -86 84v33q0 85 86 85h8v34h71v-97h-63q-18 0 -23.5 -5t-5.5 -22v-22q0 -17 5.5 -22t23.5 -5z" />
    <glyph glyph-name="tilde" unicode="&#x2dc;" horiz-adv-x="421" 
d="M266 534q-26 0 -59 19t-42 19q-17 0 -17 -23v-15h-78v22q0 40 18 60t60 20h9q25 0 56.5 -19t41.5 -19t14 4.5t4 19.5v14h77v-23q0 -39 -17 -59t-60 -20h-7z" />
    <glyph glyph-name="hungarumlaut" unicode="&#x2dd;" horiz-adv-x="421" 
d="M65 519l82 132h90l-106 -132h-66zM184 519l82 132h90l-106 -132h-66z" />
    <glyph glyph-name="pi" unicode="&#x3c0;" horiz-adv-x="436" 
d="M434 488v-71h-71v-417h-90v417h-116v-329q0 -88 -93 -88h-62v77h35q19 0 24.5 5.5t5.5 23.5v382h367z" />
    <glyph glyph-name="uni0901" unicode="&#x901;" horiz-adv-x="0" 
d="M-136 857h79v-82h-79v82zM-250 811h80v-47q0 -18 5.5 -24t24.5 -6h88q19 0 25 6t6 24v47h79v-56q0 -83 -94 -83h-120q-94 0 -94 83v56z" />
    <glyph glyph-name="uni0902" unicode="&#x902;" horiz-adv-x="0" 
d="M-141 822h84v-95h-84v95z" />
    <glyph glyph-name="uni0903" unicode="&#x903;" horiz-adv-x="176" 
d="M46 496h84v-95h-84v95zM46 157h84v-95h-84v95z" />
    <glyph glyph-name="uni0905" unicode="&#x905;" horiz-adv-x="548" 
d="M568 626v-70h-72v-556h-89v282h-98v-117q0 -87 -92 -87h-91q-92 0 -92 87v93h91v-81q0 -18 5.5 -23.5t23.5 -5.5h36q17 0 23 5.5t6 23.5v107q0 18 -7 24.5t-25 6.5h-60v71h60q18 0 25 6.5t7 25.5v110q0 18 -6 23.5t-23 5.5h-36q-18 0 -23.5 -5.5t-5.5 -23.5v-79h-91v91
q0 87 92 87h91q92 0 92 -87v-139q0 -44 -39 -49v-1h137v275h161z" />
    <glyph glyph-name="uni0906" unicode="&#x906;" horiz-adv-x="743" 
d="M762 626v-70h-72v-556h-89v556h-105v-556h-89v282h-98v-117q0 -87 -92 -87h-91q-92 0 -92 87v93h91v-81q0 -18 5.5 -23.5t23.5 -5.5h36q17 0 23 5.5t6 23.5v107q0 18 -7 24.5t-25 6.5h-60v71h60q18 0 25 6.5t7 25.5v110q0 18 -6 23.5t-23 5.5h-36q-18 0 -23.5 -5.5
t-5.5 -23.5v-79h-91v91q0 87 92 87h91q92 0 92 -87v-139q0 -44 -39 -49v-1h137v275h355z" />
    <glyph glyph-name="uni0907" unicode="&#x907;" horiz-adv-x="366" 
d="M311 414h-158q-17 0 -23 -5.5t-6 -23.5v-36q0 -18 6 -23.5t23 -5.5h79q48 0 70 -21t22 -64v-88q0 -44 -22 -64.5t-70 -20.5h-98v-75h-90v198h90v-55h70q18 0 24 5.5t6 23.5v64q0 18 -6 23.5t-24 5.5h-78q-48 0 -70 20.5t-22 64.5v60q0 44 22 64.5t70 20.5h95v74h-241v70
h406v-70h-75v-142z" />
    <glyph glyph-name="uni0908" unicode="&#x908;" horiz-adv-x="366" 
d="M311 414h-158q-17 0 -23 -5.5t-6 -23.5v-36q0 -18 6 -23.5t23 -5.5h79q48 0 70 -21t22 -64v-88q0 -44 -22 -64.5t-70 -20.5h-98v-75h-90v198h90v-55h70q18 0 24 5.5t6 23.5v64q0 18 -6 23.5t-24 5.5h-78q-48 0 -70 20.5t-22 64.5v60q0 44 22 64.5t70 20.5h95v74h-241v70
h241v71q0 43 22 63.5t70 20.5h66v-68h-38q-18 0 -24 -5t-6 -23v-59h75v-70h-75v-142z" />
    <glyph glyph-name="uni0909" unicode="&#x909;" horiz-adv-x="355" 
d="M373 626v-70h-80q8 -10 8 -27v-123q0 -46 -39 -49v-3q39 -3 39 -48v-221q0 -43 -22 -64t-70 -21h-93q-48 0 -70 21t-22 64v125h90v-113q0 -18 5.5 -23.5t22.5 -5.5h40q17 0 23 5.5t6 23.5v192q0 18 -6 23.5t-23 5.5h-77v71h77q17 0 23 5.5t6 23.5v105q0 22 -7 27.5
t-37 5.5h-187v70h393z" />
    <glyph glyph-name="uni090A" unicode="&#x90a;" horiz-adv-x="502" 
d="M522 626v-70h-229q8 -10 8 -27v-123q0 -46 -39 -49v-3h123q90 0 90 -89v-180q0 -85 -92 -85h-48v70h20q18 0 23.5 5.5t5.5 23.5v155q0 19 -5.5 24.5t-23.5 5.5h-54v-199q0 -43 -22 -64t-70 -21h-93q-48 0 -70 21t-22 64v125h90v-113q0 -18 5.5 -23.5t22.5 -5.5h40
q17 0 23 5.5t6 23.5v192q0 18 -6 23.5t-23 5.5h-77v71h77q17 0 23 5.5t6 23.5v105q0 22 -7 27.5t-37 5.5h-187v70h542z" />
    <glyph glyph-name="uni090B" unicode="&#x90b;" horiz-adv-x="706" 
d="M358 556v-289h82q-15 15 -15 52v75q0 44 23 66t74 22h51q51 0 73.5 -22t22.5 -66v-73q0 -38 -8 -55t-27 -22v-5q35 -13 35 -57v-98q0 -84 -92 -84h-63q-85 0 -85 84v55h90v-41q0 -17 5 -23.5t21 -6.5h7q16 0 21 6.5t5 23.5v75q0 16 -5 20.5t-21 4.5h-194v-198h-89v198
h-23l-135 -198h-102l165 242l-59 113q-16 31 -31 42.5t-45 11.5h-32v72h51q53 0 78 -14t46 -54l78 -146h9v289h-289v70h746v-70h-368zM515 385v-89q0 -29 24 -29h18q23 0 23 29v89q0 17 -5.5 23t-22.5 6h-9q-17 0 -22.5 -6t-5.5 -23z" />
    <glyph glyph-name="uni090C" unicode="&#x90c;" horiz-adv-x="541" 
d="M495 37h-65q-18 0 -23.5 -5.5t-5.5 -23.5v-36q0 -17 5.5 -22.5t23.5 -5.5h110v-71h-138q-92 0 -92 85v62q0 85 90 85h4v307h-60q-19 0 -24.5 -6t-5.5 -24v-189h-90v189q0 18 -5.5 24t-23.5 6h-32q-17 0 -23 -6t-6 -24v-281q0 -17 6 -22.5t23 -5.5h51v-73h-78
q-48 0 -70 21t-22 64v308q0 89 90 89h86q46 0 49 -39h3q3 39 48 39h84v74h-424v70h581v-70h-66v-519z" />
    <glyph glyph-name="uni090D" unicode="&#x90d;" horiz-adv-x="405" 
d="M425 626v-70h-64v-190q0 -44 -21.5 -64.5t-69.5 -20.5h-69v70h41q18 0 23.5 5.5t5.5 23.5v176h-129v-459q0 -18 6 -23.5t23 -5.5h70q17 0 22.5 5.5t5.5 23.5v105h90v-117q0 -43 -22 -64t-70 -21h-123q-48 0 -70 21t-22 64v471h-72v70h445zM267 668h-120q-94 0 -94 83v56
h80v-47q0 -18 5.5 -24t24.5 -6h88q19 0 24.5 6t5.5 24v47h80v-56q0 -83 -94 -83z" />
    <glyph glyph-name="uni090E" unicode="&#x90e;" horiz-adv-x="405" 
d="M425 626v-70h-64v-190q0 -44 -21.5 -64.5t-69.5 -20.5h-69v70h41q18 0 23.5 5.5t5.5 23.5v176h-129v-459q0 -18 6 -23.5t23 -5.5h70q17 0 22.5 5.5t5.5 23.5v105h90v-117q0 -43 -22 -64t-70 -21h-123q-48 0 -70 21t-22 64v471h-72v70h291v31q0 20 -6 26t-26 6h-79
q-82 0 -82 82v50h90v-29q0 -20 6 -26t27 -6h78q82 0 82 -82v-52h64z" />
    <glyph glyph-name="uni090F" unicode="&#x90f;" horiz-adv-x="405" 
d="M425 626v-70h-64v-190q0 -44 -21.5 -64.5t-69.5 -20.5h-69v70h41q18 0 23.5 5.5t5.5 23.5v176h-129v-459q0 -18 6 -23.5t23 -5.5h70q17 0 22.5 5.5t5.5 23.5v105h90v-117q0 -43 -22 -64t-70 -21h-123q-48 0 -70 21t-22 64v471h-72v70h445z" />
    <glyph glyph-name="uni0910" unicode="&#x910;" horiz-adv-x="405" 
d="M425 626v-70h-64v-190q0 -44 -21.5 -64.5t-69.5 -20.5h-69v70h41q18 0 23.5 5.5t5.5 23.5v176h-129v-459q0 -18 6 -23.5t23 -5.5h70q17 0 22.5 5.5t5.5 23.5v105h90v-117q0 -43 -22 -64t-70 -21h-123q-48 0 -70 21t-22 64v471h-72v70h279q-32 32 -84 102l-66 91h108
l135 -193h73z" />
    <glyph glyph-name="uni0911" unicode="&#x911;" horiz-adv-x="743" 
d="M720 811h80v-56q0 -83 -94 -83h-120q-94 0 -94 83v56h80v-47q0 -18 5.5 -24t24.5 -6h88q19 0 24.5 6t5.5 24v47zM762 626v-70h-72v-556h-89v556h-105v-556h-89v282h-98v-117q0 -87 -92 -87h-91q-92 0 -92 87v93h91v-81q0 -18 5.5 -23.5t23.5 -5.5h36q17 0 23 5.5t6 23.5
v107q0 18 -7 24.5t-25 6.5h-60v71h60q18 0 25 6.5t7 25.5v110q0 18 -6 23.5t-23 5.5h-36q-18 0 -23.5 -5.5t-5.5 -23.5v-79h-91v91q0 87 92 87h91q92 0 92 -87v-139q0 -44 -39 -49v-1h137v275h355z" />
    <glyph glyph-name="uni0912" unicode="&#x912;" horiz-adv-x="742" 
d="M762 626v-70h-72v-556h-89v556h-105v-556h-89v282h-98v-117q0 -87 -92 -87h-91q-92 0 -92 87v93h91v-81q0 -18 5.5 -23.5t23.5 -5.5h36q17 0 23 5.5t6 23.5v107q0 18 -7 24.5t-25 6.5h-60v71h60q18 0 25 6.5t7 25.5v110q0 18 -6 23.5t-23 5.5h-36q-18 0 -23.5 -5.5
t-5.5 -23.5v-79h-91v91q0 87 92 87h91q92 0 92 -87v-139q0 -44 -39 -49v-1h137v275h193v31q0 20 -6 26t-26 6h-79q-82 0 -82 82v50h90v-29q0 -20 6 -26t27 -6h78q82 0 82 -82v-52h72z" />
    <glyph glyph-name="uni0913" unicode="&#x913;" horiz-adv-x="742" 
d="M762 626v-70h-72v-556h-89v556h-105v-556h-89v282h-98v-117q0 -87 -92 -87h-91q-92 0 -92 87v93h91v-81q0 -18 5.5 -23.5t23.5 -5.5h36q17 0 23 5.5t6 23.5v107q0 18 -7 24.5t-25 6.5h-60v71h60q18 0 25 6.5t7 25.5v110q0 18 -6 23.5t-23 5.5h-36q-18 0 -23.5 -5.5
t-5.5 -23.5v-79h-91v91q0 87 92 87h91q92 0 92 -87v-139q0 -44 -39 -49v-1h137v275h190q-32 32 -84 102l-66 91h108l135 -193h72z" />
    <glyph glyph-name="uni0914" unicode="&#x914;" horiz-adv-x="743" 
d="M762 626v-70h-72v-556h-89v556h-105v-556h-89v282h-98v-117q0 -87 -92 -87h-91q-92 0 -92 87v93h91v-81q0 -18 5.5 -23.5t23.5 -5.5h36q17 0 23 5.5t6 23.5v107q0 18 -7 24.5t-25 6.5h-60v71h60q18 0 25 6.5t7 25.5v110q0 18 -6 23.5t-23 5.5h-36q-18 0 -23.5 -5.5
t-5.5 -23.5v-79h-91v91q0 87 92 87h91q92 0 92 -87v-139q0 -44 -39 -49v-1h137v275h183q-41 30 -83 68l-135 125h114l42 -48q73 -81 110 -142h4q-16 30 -34 73l-49 117h90l39 -193h74z" />
    <glyph glyph-name="uni0915" unicode="&#x915;" horiz-adv-x="548" 
d="M568 556h-249v-84q11 10 36 10h63q90 0 90 -89v-230q0 -43 -22 -64t-70 -21h-57v68h29q18 0 24 5.5t6 23.5v207q0 19 -6 24.5t-24 5.5h-37q-18 0 -25 -6.5t-7 -25.5v-380h-90v89q-11 -11 -37 -11h-62q-90 0 -90 89v230q0 44 22 64.5t70 20.5h56v-68h-29q-17 0 -23 -5.5
t-6 -23.5v-207q0 -18 6 -24t23 -6h38q18 0 25 7t7 25v376h-249v70h588v-70z" />
    <glyph glyph-name="uni0916" unicode="&#x916;" horiz-adv-x="657" 
d="M677 626v-70h-72v-556h-87v125q-10 -15 -40 -15h-54q-90 0 -90 89v187q0 44 22 64.5t70 20.5h60v-68h-36q-18 0 -23.5 -5.5t-5.5 -23.5v-164q0 -18 5.5 -23.5t23.5 -5.5h31q20 0 28.5 8t8.5 28v339h-236q8 -8 8 -26v-201q0 -86 -92 -86h-61v-139q0 -20 5.5 -25.5
t25.5 -5.5h221v-73h-242q-52 0 -76.5 21t-24.5 66v384h91v-158h31q20 0 26 6.5t6 25.5v179q0 20 -6 26t-26 6h-188v70h697z" />
    <glyph glyph-name="uni0917" unicode="&#x917;" horiz-adv-x="557" 
d="M577 626v-70h-72v-556h-90v556h-99v-389q0 -46 -23 -67.5t-73 -21.5h-90q-50 0 -73 21.5t-23 67.5v182q0 87 100 87h92v120h-246v70h597zM153 148h43q18 0 24 5.5t6 24.5v187h-71q-19 0 -25 -5.5t-6 -25.5v-156q0 -18 6 -24t23 -6z" />
    <glyph glyph-name="uni0918" unicode="&#x918;" horiz-adv-x="440" 
d="M460 626v-70h-71v-556h-91v89q-11 -11 -35 -11h-120q-97 0 -97 89v134q0 45 39 48v3q-39 3 -39 49v125q0 21 11 30h-77v70h480zM298 182v374h-117q-29 0 -36.5 -5t-7.5 -27v-108q0 -18 5.5 -23.5t23.5 -5.5h61v-71h-61q-18 0 -23.5 -5.5t-5.5 -23.5v-109q0 -19 5.5 -24.5
t23.5 -5.5h98q20 0 27 7t7 27z" />
    <glyph glyph-name="uni0919" unicode="&#x919;" horiz-adv-x="394" 
d="M-20 626h434v-70h-107v-142h-133q-18 0 -23.5 -5.5t-5.5 -23.5v-60q0 -17 5.5 -22.5t23.5 -5.5h54q48 0 70 -21t22 -64v-127q0 -43 -22 -64t-70 -21h-92q-48 0 -70 21t-22 64v79h90v-67q0 -18 5.5 -23.5t22.5 -5.5h39q17 0 23 5.5t6 23.5v103q0 17 -6 22.5t-23 5.5h-55
q-47 0 -69 21t-22 64v84q0 44 21.5 64.5t69.5 20.5h71v74h-237v70zM307 303v95h83v-95h-83z" />
    <glyph glyph-name="uni091A" unicode="&#x91a;" horiz-adv-x="410" 
d="M430 626v-70h-72v-556h-90v89q-11 -11 -37 -11h-78q-90 0 -90 89v213q0 22 10 32h-72v70h219v-70h-25q-27 0 -34.5 -5t-7.5 -25v-204q0 -18 5.5 -24t23.5 -6h54q18 0 25 7t7 25v376h-288v70h450z" />
    <glyph glyph-name="uni091B" unicode="&#x91b;" horiz-adv-x="543" 
d="M563 556h-144v-75q78 -5 78 -84v-308q0 -89 -97 -89h-253q-96 0 -96 89v171q0 43 39 48v2q-39 5 -39 49v171q0 16 7 26h-78v70h583v-70zM335 556h-146l7 -1q-37 2 -46 -2.5t-9 -28.5v-149q0 -19 5.5 -24.5t23.5 -5.5h36v-70h-36q-18 0 -23.5 -5.5t-5.5 -24.5v-145
q0 -18 5.5 -23.5t23.5 -5.5h211q18 0 23.5 5.5t5.5 23.5v287q0 18 -5.5 23.5t-23.5 5.5h-19q-18 0 -23.5 -5.5t-5.5 -23.5v-112q0 -18 5.5 -23.5t23.5 -5.5h18v-66h-37q-88 0 -88 85v132q0 79 80 85v74z" />
    <glyph glyph-name="uni091C" unicode="&#x91c;" horiz-adv-x="540" 
d="M560 626v-70h-72v-556h-90v412h-84v-245q0 -46 -23 -67.5t-73 -21.5h-78q-50 0 -73 21.5t-23 67.5v315h90v-304q0 -19 6 -24.5t24 -5.5h31q17 0 23 6t6 24v304h174v74h-418v70h580z" />
    <glyph glyph-name="uni091D" unicode="&#x91d;" horiz-adv-x="570" 
d="M590 626v-70h-72v-556h-90v252h-102q2 -14 2 -21v-84q0 -44 -22 -64.5t-70 -20.5h-102v-75h-90v198h90v-55h74q18 0 24 5.5t6 23.5v64q0 18 -6 23.5t-24 5.5h-74q-48 0 -69.5 20.5t-21.5 64.5v60q0 44 21.5 64.5t69.5 20.5h93v74h-251v70h614zM428 320v236h-110v-142
h-156q-18 0 -23.5 -5.5t-5.5 -23.5v-36q0 -18 5.5 -23.5t23.5 -5.5h266z" />
    <glyph glyph-name="uni091E" unicode="&#x91e;" horiz-adv-x="533" 
d="M553 626v-70h-72v-556h-90v262h-97v-95q0 -46 -23 -67.5t-73 -21.5h-74q-50 0 -73 21.5t-23 67.5v92h90v-81q0 -19 6 -24.5t24 -5.5h27q17 0 23 6t6 24v205q0 18 -5.5 23.5t-23.5 5.5h-89v70h117q91 0 91 -87v-62h97v223h-411v70h573z" />
    <glyph glyph-name="uni091F" unicode="&#x91f;" horiz-adv-x="366" 
d="M317 412h-145q-18 0 -24 -5.5t-6 -24.5v-282q0 -19 6 -24.5t24 -5.5h30q18 0 24 5.5t6 24.5v103h90v-114q0 -46 -23 -67.5t-73 -21.5h-78q-50 0 -73 21.5t-23 67.5v308q0 44 22 64.5t70 20.5h83v74h-247v70h406v-70h-69v-144z" />
    <glyph glyph-name="uni0920" unicode="&#x920;" horiz-adv-x="393" 
d="M413 556h-169v-74h7q50 0 73 -21t23 -68v-304q0 -46 -23 -67.5t-73 -21.5h-103q-50 0 -73 21.5t-23 67.5v304q0 47 23 68t73 21h6v74h-174v70h433v-70zM257 100v282q0 19 -6 24.5t-24 5.5h-55q-18 0 -24 -5.5t-6 -24.5v-282q0 -19 6 -24.5t24 -5.5h55q18 0 24 5.5t6 24.5
z" />
    <glyph glyph-name="uni0921" unicode="&#x921;" horiz-adv-x="376" 
d="M307 414h-133q-18 0 -23.5 -5.5t-5.5 -23.5v-60q0 -17 5.5 -22.5t23.5 -5.5h54q48 0 70 -21t22 -64v-127q0 -43 -22 -64t-70 -21h-92q-48 0 -70 21t-22 64v79h90v-67q0 -18 5.5 -23.5t22.5 -5.5h39q17 0 23 5.5t6 23.5v103q0 17 -6 22.5t-23 5.5h-55q-47 0 -69 21t-22 64
v84q0 44 21.5 64.5t69.5 20.5h71v74h-237v70h416v-70h-89v-142z" />
    <glyph glyph-name="uni0922" unicode="&#x922;" horiz-adv-x="406" 
d="M317 412h-145q-18 0 -24 -5.5t-6 -24.5v-282q0 -19 6 -24.5t24 -5.5h65q17 0 23 6t6 24v88q0 18 -6 23.5t-23 5.5h-42v70h65q51 0 74 -21t23 -68v-109q0 -46 -23 -67.5t-74 -21.5h-112q-50 0 -73 21.5t-23 67.5v308q0 44 22 64.5t70 20.5h83v74h-247v70h446v-70h-109
v-144z" />
    <glyph glyph-name="uni0923" unicode="&#x923;" horiz-adv-x="542" 
d="M562 626v-70h-72v-556h-90v556h-86v-389q0 -46 -23 -67.5t-73 -21.5h-78q-50 0 -73 21.5t-23 67.5v389h-64v70h582zM224 178v378h-90v-378q0 -19 6 -24.5t24 -5.5h31q17 0 23 6t6 24z" />
    <glyph glyph-name="uni0924" unicode="&#x924;" horiz-adv-x="398" 
d="M418 626v-70h-72v-556h-90v412h-93q-17 0 -23 -5.5t-6 -23.5v-282q0 -17 6 -22.5t23 -5.5h30v-73h-57q-48 0 -70 21t-22 64v312q0 44 22 64.5t70 20.5h120v74h-276v70h438z" />
    <glyph glyph-name="uni0925" unicode="&#x925;" horiz-adv-x="476" 
d="M496 626v-70h-71v-556h-91v89q-11 -11 -35 -11h-156q-96 0 -96 89v196h102q18 0 24 5.5t6 22.5v141q0 18 -6 23.5t-24 5.5h-5q-18 0 -24 -5.5t-6 -23.5v-43h-60v58q0 84 88 84h37q90 0 90 -84v-168q0 -87 -92 -87h-40v-114q0 -18 5.5 -24t23.5 -6h134q20 0 27 7t7 27v444
h162z" />
    <glyph glyph-name="uni0926" unicode="&#x926;" horiz-adv-x="374" 
d="M322 412h-153q-18 0 -24 -5.5t-6 -24.5v-204q0 -18 5.5 -24t23.5 -6h37q18 0 25 7t7 25v91h90v-271h-90v89q-11 -11 -36 -11h-56q-50 0 -73 21.5t-23 67.5v230q0 44 22 64.5t70 20.5h91v74h-255v70h417v-70h-72v-144z" />
    <glyph glyph-name="uni0927" unicode="&#x927;" horiz-adv-x="478" 
d="M499 626v-70h-71v-556h-91v89q-11 -11 -35 -11h-145q-90 0 -90 85v131q0 43 39 48v2q-39 5 -39 49v154q0 84 90 84h39q90 0 90 -84v-58h-60v43q0 18 -6 23.5t-24 5.5h-9q-18 0 -23.5 -5.5t-5.5 -23.5v-123q0 -19 5.5 -24.5t23.5 -5.5h68v-70h-68q-18 0 -23.5 -5.5
t-5.5 -24.5v-101q0 -19 5.5 -24.5t23.5 -5.5h116q19 0 26.5 7t7.5 27v444h162z" />
    <glyph glyph-name="uni0928" unicode="&#x928;" horiz-adv-x="525" 
d="M545 626v-70h-72v-556h-90v412h-82v-245q0 -46 -23.5 -67.5t-73.5 -21.5h-74q-50 0 -73 21.5t-23 67.5v230q0 44 22 64.5t70 20.5h257v74h-403v70h565zM210 178v234h-57q-17 0 -23 -5.5t-6 -23.5v-205q0 -19 6 -24.5t24 -5.5h27q17 0 23 6t6 24z" />
    <glyph glyph-name="uni0928093C" unicode="&#x929;" horiz-adv-x="525" 
d="M545 626v-70h-72v-556h-90v412h-82v-245q0 -46 -23.5 -67.5t-73.5 -21.5h-74q-50 0 -73 21.5t-23 67.5v230q0 44 22 64.5t70 20.5h257v74h-403v70h565zM210 178v234h-57q-17 0 -23 -5.5t-6 -23.5v-205q0 -19 6 -24.5t24 -5.5h27q17 0 23 6t6 24zM218 -101v95h83v-95h-83z
" />
    <glyph glyph-name="uni092A" unicode="&#x92a;" horiz-adv-x="383" 
d="M403 626v-70h-72v-556h-90v89q-11 -11 -37 -11h-62q-90 0 -90 89v389h-72v70h423zM241 180v376h-99v-378q0 -18 6 -24t23 -6h38q18 0 25 7t7 25z" />
    <glyph glyph-name="uni092B" unicode="&#x92b;" horiz-adv-x="554" 
d="M574 556h-249v-85q11 11 37 11h62q90 0 90 -89v-230q0 -43 -22 -64t-69 -21h-57v68h29q18 0 23.5 5.5t5.5 23.5v207q0 19 -5.5 24.5t-23.5 5.5h-38q-18 0 -25 -6.5t-7 -25.5v-380h-90v89q-11 -11 -36 -11h-63q-90 0 -90 89v389h-66v70h594v-70zM235 180v376h-98v-378
q0 -19 5.5 -24.5t23.5 -5.5h38q17 0 24 7t7 25z" />
    <glyph glyph-name="uni092C" unicode="&#x92c;" horiz-adv-x="425" 
d="M445 626v-70h-72v-556h-91v85q-11 -7 -32 -7h-114q-90 0 -90 89v230q0 44 22 64.5t70 20.5h104v-68h-75l69 -121l52 -96q-6 39 -6 128v231h-302v70h465zM165 148h89q9 0 12 1l-77 132q-12 23 -31.5 60.5t-21.5 40.5v-204q0 -18 6 -24t23 -6z" />
    <glyph glyph-name="uni092D" unicode="&#x92d;" horiz-adv-x="572" 
d="M592 626v-70h-71v-556h-91v339h-105v-172q0 -46 -23 -67.5t-73 -21.5h-89q-50 0 -73 21.5t-23 67.5v157q0 44 22 64.5t70 20.5h99v119q0 18 -6 23.5t-24 5.5h-33q-18 0 -24 -5.5t-6 -23.5v-49h-90v61q0 87 92 87h89q92 0 92 -87v-131h105v217h162zM235 178v161h-72
q-17 0 -23 -5.5t-6 -23.5v-132q0 -19 6 -24.5t24 -5.5h41q18 0 24 5.5t6 24.5z" />
    <glyph glyph-name="uni092E" unicode="&#x92e;" horiz-adv-x="562" 
d="M582 626v-70h-71v-556h-91v362h-105v-171q0 -47 -23 -68t-73 -21h-89q-50 0 -73 21t-23 68v156q0 43 22 64t70 21h99v124h-245v70h602zM225 202v160h-75q-18 0 -24 -5.5t-6 -23.5v-131q0 -19 6 -24.5t24 -5.5h45q18 0 24 5.5t6 24.5zM420 432v124h-105v-124h105z" />
    <glyph glyph-name="uni092F" unicode="&#x92f;" horiz-adv-x="470" 
d="M490 626v-70h-72v-556h-90v89q-11 -11 -36 -11h-160q-96 0 -96 89v211h90q17 0 23 5.5t6 22.5v117q0 22 -7 27.5t-37 5.5h-147v70h526zM328 182v374h-94q9 -10 9 -31v-131q0 -87 -90 -87h-27v-129q0 -19 6 -24.5t24 -5.5h138q20 0 27 7t7 27z" />
    <glyph glyph-name="uni0930" unicode="&#x930;" horiz-adv-x="361" 
d="M381 626v-70h-68q8 -8 8 -26v-166q0 -86 -100 -86h-87v-181q0 -18 6 -23.5t23 -5.5h38q17 0 22.5 5.5t5.5 23.5v113h90v-125q0 -43 -22 -64t-70 -21h-91q-48 0 -70 21t-22 64v366h90v-103h65q19 0 25.5 6t6.5 26v144q0 20 -6.5 26t-25.5 6h-219v70h401z" />
    <glyph glyph-name="uni0930093C" unicode="&#x931;" horiz-adv-x="361" 
d="M381 626v-70h-68q8 -8 8 -26v-166q0 -86 -100 -86h-87v-181q0 -18 6 -23.5t23 -5.5h38q17 0 22.5 5.5t5.5 23.5v113h90v-125q0 -43 -22 -64t-70 -21h-91q-48 0 -70 21t-22 64v366h90v-103h65q19 0 25.5 6t6.5 26v144q0 20 -6.5 26t-25.5 6h-219v70h401zM131 -165v95h83
v-95h-83z" />
    <glyph glyph-name="uni0932" unicode="&#x932;" horiz-adv-x="543" 
d="M563 626v-70h-67v-556h-90v412h-60q-18 0 -23.5 -6t-5.5 -24v-197h-90v197q0 18 -5.5 24t-23.5 6h-32q-18 0 -23.5 -6t-5.5 -24v-281q0 -17 6 -22.5t23 -5.5h59v-73h-87q-47 0 -69 21t-22 64v308q0 89 90 89h86q46 0 49 -39h3q3 39 48 39h83v74h-426v70h583z" />
    <glyph glyph-name="uni0933" unicode="&#x933;" horiz-adv-x="566" 
d="M602 556h-168v-74h7q89 0 89 -89v-226q0 -89 -89 -89h-103q-49 0 -52 39h-3q-3 -39 -53 -39h-104q-90 0 -90 89v226q0 89 90 89h104q50 0 53 -39h3q3 39 52 39h6v74h-380v70h638v-70zM239 178v204q0 18 -5.5 24t-23.5 6h-54q-18 0 -24 -5.5t-6 -24.5v-204q0 -19 6 -24.5
t24 -5.5h54q18 0 23.5 6t5.5 24zM440 178v204q0 19 -5.5 24.5t-23.5 5.5h-54q-19 0 -24.5 -6t-5.5 -24v-204q0 -18 5.5 -24t24.5 -6h54q18 0 23.5 5.5t5.5 24.5z" />
    <glyph glyph-name="uni0933093C" unicode="&#x934;" horiz-adv-x="566" 
d="M602 556h-168v-74h7q89 0 89 -89v-226q0 -89 -89 -89h-103q-49 0 -52 39h-3q-3 -39 -53 -39h-104q-90 0 -90 89v226q0 89 90 89h104q50 0 53 -39h3q3 39 52 39h6v74h-380v70h638v-70zM239 178v204q0 18 -5.5 24t-23.5 6h-54q-18 0 -24 -5.5t-6 -24.5v-204q0 -19 6 -24.5
t24 -5.5h54q18 0 23.5 6t5.5 24zM440 178v204q0 19 -5.5 24.5t-23.5 5.5h-54q-19 0 -24.5 -6t-5.5 -24v-204q0 -18 5.5 -24t24.5 -6h54q18 0 23.5 5.5t5.5 24.5zM75 -85v95h83v-95h-83z" />
    <glyph glyph-name="uni0935" unicode="&#x935;" horiz-adv-x="377" 
d="M397 626v-70h-72v-556h-90v89q-11 -11 -36 -11h-63q-90 0 -90 89v230q0 44 22 64.5t70 20.5h57v-70h-29q-18 0 -23.5 -5.5t-5.5 -23.5v-205q0 -19 5.5 -24.5t23.5 -5.5h38q17 0 24 7t7 25v376h-255v70h417z" />
    <glyph glyph-name="uni0936" unicode="&#x936;" horiz-adv-x="547" 
d="M405 626h162v-70h-72v-556h-90v626zM142 628h91q92 0 92 -87v-194q0 -86 -100 -86h-87v-164q0 -18 6 -23.5t24 -5.5h37q17 0 22.5 5.5t5.5 23.5v96h90v-108q0 -43 -22 -64t-69 -21h-92q-48 0 -70 21t-22 64v296h90v-50h65q19 0 25.5 6.5t6.5 25.5v166q0 18 -6 23.5
t-24 5.5h-37q-17 0 -22.5 -5.5t-5.5 -23.5v-77h-90v89q0 87 92 87z" />
    <glyph glyph-name="uni0937" unicode="&#x937;" horiz-adv-x="424" 
d="M444 626v-70h-72v-556h-90v89q-11 -11 -36 -11h-104q-90 0 -90 89v389h-72v70h464zM171 148h79q25 0 30 15l-98 198l-49 109q9 -50 9 -121v-171q0 -18 6 -24t23 -6zM282 379v177h-141q127 -254 149 -314q-8 56 -8 137z" />
    <glyph glyph-name="uni0938" unicode="&#x938;" horiz-adv-x="550" 
d="M570 626v-70h-72v-556h-89v278h-275v-181q0 -18 6 -23.5t23 -5.5h38q17 0 22.5 5.5t5.5 23.5v113h90v-125q0 -43 -22 -64t-70 -21h-91q-48 0 -70 21t-22 64v366h90v-103h65q19 0 25.5 6t6.5 26v144q0 20 -6.5 26t-25.5 6h-219v70h590zM409 348v208h-96q8 -8 8 -26v-129
q0 -38 -15 -53h103z" />
    <glyph glyph-name="uni0939" unicode="&#x939;" horiz-adv-x="389" 
d="M337 412h-166q-17 0 -23 -5.5t-6 -22.5v-41q0 -17 6 -22.5t23 -5.5h78q50 0 73 -21t23 -68v-55h-90v44q0 19 -6 24.5t-24 5.5h-54q-17 0 -23 -5.5t-6 -24.5v-115q0 -18 6 -24t23 -6h174v-70h-197q-96 0 -96 89v140q0 44 39 49v2q-39 5 -39 49v68q0 44 22 64.5t70 20.5
h103v74h-267v70h437v-70h-80v-144z" />
    <glyph glyph-name="uni093C" unicode="&#x93c;" horiz-adv-x="0" 
d="M-137 -62h83v-95h-83v95z" />
    <glyph glyph-name="uni093D" unicode="&#x93d;" horiz-adv-x="368" 
d="M304 558h-128q-18 0 -23.5 -5.5t-5.5 -23.5v-126q0 -17 5.5 -22.5t23.5 -5.5h54q48 0 70 -21t22 -64v-205q0 -43 -22 -64t-70 -21h-92q-48 0 -70 21t-22 64v79h90v-67q0 -18 5.5 -23.5t22.5 -5.5h39q17 0 23 5.5t6 23.5v181q0 17 -6 22.5t-23 5.5h-55q-47 0 -69 21
t-22 64v150q0 44 21.5 64.5t69.5 20.5h156v-68z" />
    <glyph glyph-name="uni093E" unicode="&#x93e;" horiz-adv-x="195" 
d="M214 626v-70h-72v-556h-89v556h-72v70h233z" />
    <glyph glyph-name="uni093F" unicode="&#x93f;" 
d="M140 822h285q88 0 88 -85v-68h-91v51q0 21 -5.5 26.5t-26.5 5.5h-216q-20 0 -26 -6t-6 -26v-94h72v-70h-72v-556h-90v556h-72v70h72v111q0 85 88 85z" />
    <glyph glyph-name="uni0940" unicode="&#x940;" 
d="M214 626v-70h-72v-556h-90v556h-72v70h72v94q0 20 -6 26t-26 6h-46q-21 0 -26.5 -5.5t-5.5 -26.5v-51h-90v68q0 85 88 85h114q88 0 88 -85v-111h72z" />
    <glyph glyph-name="uni0941" unicode="&#x941;" horiz-adv-x="0" 
d="M-48 2q90 0 90 -89v-55q0 -89 -90 -89h-108q-60 0 -89 15t-56 63l-36 61h107l24 -40q18 -29 54 -29h73q19 0 25 5.5t6 25.5v31q0 19 -6 25t-25 6h-63v70h94z" />
    <glyph glyph-name="uni0942" unicode="&#x942;" horiz-adv-x="0" 
d="M-60 2q55 0 82 -15.5t55 -60.5l97 -156h-107l-81 129q-21 32 -49 32h-47q-20 0 -25.5 -5.5t-5.5 -25.5v-30q0 -20 5.5 -25.5t25.5 -5.5h53v-71h-85q-90 0 -90 90v55q0 89 90 89h82z" />
    <glyph glyph-name="uni0943" unicode="&#x943;" horiz-adv-x="0" 
d="M-52 2v-71h-52q-20 0 -25.5 -5.5t-5.5 -25.5v-30q0 -20 5.5 -25.5t25.5 -5.5h91v-71h-122q-90 0 -90 90v55q0 89 90 89h83z" />
    <glyph glyph-name="uni0944" unicode="&#x944;" horiz-adv-x="0" 
d="M-221 -81q0 83 87 83h82v-71h-50q-18 0 -23.5 -5.5t-5.5 -23.5v-34q0 -18 5.5 -23.5t23.5 -5.5h48v-71h-48q-18 0 -23.5 -5.5t-5.5 -23.5v-34q0 -18 5.5 -23.5t23.5 -5.5h93v-70h-116q-49 0 -72.5 21.5t-23.5 67.5v58q0 45 39 48v3q-39 3 -39 49v66z" />
    <glyph glyph-name="uni0945" unicode="&#x945;" horiz-adv-x="0" 
d="M-251 811h80v-47q0 -18 5.5 -24t24.5 -6h88q19 0 24.5 6t5.5 24v47h80v-56q0 -83 -94 -83h-120q-94 0 -94 83v56z" />
    <glyph glyph-name="uni0946" unicode="&#x946;" horiz-adv-x="0" 
d="M-335 821h90v-29q0 -20 6 -26t27 -6h78q82 0 82 -82v-89h-90v68q0 20 -6 26t-26 6h-79q-82 0 -82 82v50z" />
    <glyph glyph-name="uni0947" unicode="&#x947;" horiz-adv-x="0" 
d="M-199 819l143 -204h-89q-36 32 -96 113l-66 91h108z" />
    <glyph glyph-name="uni0948" unicode="&#x948;" horiz-adv-x="0" 
d="M-373 819h114l42 -48q73 -81 110 -142h4q-16 30 -34 73l-49 117h90l41 -201h-87q-35 20 -96 76z" />
    <glyph glyph-name="uni0949" unicode="&#x949;" horiz-adv-x="195" 
d="M171 811h80v-56q0 -83 -94 -83h-120q-94 0 -94 83v56h80v-47q0 -18 5.5 -24t24.5 -6h88q19 0 24.5 6t5.5 24v47zM-19 556v70h233v-70h-72v-556h-89v556h-72z" />
    <glyph glyph-name="uni094A" unicode="&#x94a;" horiz-adv-x="195" 
d="M214 626v-70h-72v-556h-89v556h-72v70h71v31q0 20 -6 26t-26 6h-79q-82 0 -82 82v50h90v-29q0 -20 6 -26t27 -6h78q82 0 82 -82v-52h72z" />
    <glyph glyph-name="uni094B" unicode="&#x94b;" horiz-adv-x="195" 
d="M214 626v-70h-72v-556h-89v556h-72v70h59q-32 32 -84 102l-66 91h108l135 -193h81z" />
    <glyph glyph-name="uni094C" unicode="&#x94c;" horiz-adv-x="195" 
d="M214 626v-70h-72v-556h-89v556h-72v70h61q-41 30 -83 68l-135 125h114l42 -48q73 -81 110 -142h4q-16 30 -34 73l-49 117h90l39 -193h74z" />
    <glyph glyph-name="uni094D" unicode="&#x94d;" horiz-adv-x="0" 
d="M-62 -61l106 -134h-95l-106 134h95z" />
    <glyph glyph-name="uni0950" unicode="&#x950;" horiz-adv-x="675" 
d="M536 349q92 0 92 -87v-175q0 -87 -92 -87h-76q-91 0 -91 87v97h90v-85q0 -18 5.5 -23.5t23.5 -5.5h20q18 0 23.5 5.5t5.5 23.5v151q0 17 -5.5 22.5t-23.5 5.5h-212q13 -11 13 -42v-149q0 -87 -92 -87h-91q-92 0 -92 87v101h90v-89q0 -18 6 -23.5t24 -5.5h35q18 0 24 5.5
t6 23.5v148q0 18 -7 24.5t-25 6.5h-61v71h61q18 0 25 6.5t7 25.5v146q0 18 -6 23.5t-24 5.5h-35q-18 0 -24 -5.5t-6 -23.5v-86h-90v98q0 87 92 87h91q92 0 92 -87v-42h143q18 0 24 5.5t6 24.5v46h86v-59q0 -88 -91 -88h-168v-34q0 -32 -14 -43h241zM428 641v-81h-79v81h79z
" />
    <glyph glyph-name="uni0915093C" unicode="&#x958;" horiz-adv-x="548" 
d="M568 556h-249v-84q11 10 36 10h63q90 0 90 -89v-230q0 -43 -22 -64t-70 -21h-57v68h29q18 0 24 5.5t6 23.5v207q0 19 -6 24.5t-24 5.5h-37q-18 0 -25 -6.5t-7 -25.5v-380h-90v89q-11 -11 -37 -11h-62q-90 0 -90 89v230q0 44 22 64.5t70 20.5h56v-68h-29q-17 0 -23 -5.5
t-6 -23.5v-207q0 -18 6 -24t23 -6h38q18 0 25 7t7 25v376h-249v70h588v-70zM60 -72v95h83v-95h-83z" />
    <glyph glyph-name="uni0916093C" unicode="&#x959;" horiz-adv-x="657" 
d="M677 626v-70h-72v-556h-87v125q-10 -15 -40 -15h-54q-90 0 -90 89v187q0 44 22 64.5t70 20.5h60v-68h-36q-18 0 -23.5 -5.5t-5.5 -23.5v-164q0 -18 5.5 -23.5t23.5 -5.5h31q20 0 28.5 8t8.5 28v339h-236q8 -8 8 -26v-201q0 -86 -92 -86h-61v-139q0 -20 5.5 -25.5
t25.5 -5.5h221v-73h-242q-52 0 -76.5 21t-24.5 66v384h91v-158h31q20 0 26 6.5t6 25.5v179q0 20 -6 26t-26 6h-188v70h697zM134 -154v95h83v-95h-83z" />
    <glyph glyph-name="uni0917093C" unicode="&#x95a;" horiz-adv-x="557" 
d="M577 626v-70h-72v-556h-90v556h-99v-389q0 -46 -23 -67.5t-73 -21.5h-90q-50 0 -73 21.5t-23 67.5v182q0 87 100 87h92v120h-246v70h597zM153 148h43q18 0 24 5.5t6 24.5v187h-71q-19 0 -25 -5.5t-6 -25.5v-156q0 -18 6 -24t23 -6zM130 -94v95h83v-95h-83z" />
    <glyph glyph-name="uni091C093C" unicode="&#x95b;" horiz-adv-x="540" 
d="M560 626v-70h-72v-556h-90v412h-84v-245q0 -46 -23 -67.5t-73 -21.5h-78q-50 0 -73 21.5t-23 67.5v315h90v-304q0 -19 6 -24.5t24 -5.5h31q17 0 23 6t6 24v304h174v74h-418v70h580zM136 -93v95h83v-95h-83z" />
    <glyph glyph-name="uni0921093C" unicode="&#x95c;" horiz-adv-x="376" 
d="M307 414h-133q-18 0 -23.5 -5.5t-5.5 -23.5v-60q0 -17 5.5 -22.5t23.5 -5.5h54q48 0 70 -21t22 -64v-127q0 -43 -22 -64t-70 -21h-92q-48 0 -70 21t-22 64v79h90v-67q0 -18 5.5 -23.5t22.5 -5.5h39q17 0 23 5.5t6 23.5v103q0 17 -6 22.5t-23 5.5h-55q-47 0 -69 21t-22 64
v84q0 44 21.5 64.5t69.5 20.5h71v74h-237v70h416v-70h-89v-142zM138 -151v95h83v-95h-83z" />
    <glyph glyph-name="uni0922093C" unicode="&#x95d;" horiz-adv-x="406" 
d="M317 412h-145q-18 0 -24 -5.5t-6 -24.5v-282q0 -19 6 -24.5t24 -5.5h65q17 0 23 6t6 24v88q0 18 -6 23.5t-23 5.5h-42v70h65q51 0 74 -21t23 -68v-109q0 -46 -23 -67.5t-74 -21.5h-112q-50 0 -73 21.5t-23 67.5v308q0 44 22 64.5t70 20.5h83v74h-247v70h446v-70h-109
v-144zM164 -148v95h83v-95h-83z" />
    <glyph glyph-name="uni092B093C" unicode="&#x95e;" horiz-adv-x="554" 
d="M574 556h-249v-85q11 11 37 11h62q90 0 90 -89v-230q0 -43 -22 -64t-69 -21h-57v68h29q18 0 23.5 5.5t5.5 23.5v207q0 19 -5.5 24.5t-23.5 5.5h-38q-18 0 -25 -6.5t-7 -25.5v-380h-90v89q-11 -11 -36 -11h-63q-90 0 -90 89v389h-66v70h594v-70zM235 180v376h-98v-378
q0 -19 5.5 -24.5t23.5 -5.5h38q17 0 24 7t7 25zM95 -95v95h83v-95h-83z" />
    <glyph glyph-name="uni092F093C" unicode="&#x95f;" horiz-adv-x="470" 
d="M490 626v-70h-72v-556h-90v89q-11 -11 -36 -11h-160q-96 0 -96 89v211h90q17 0 23 5.5t6 22.5v117q0 22 -7 27.5t-37 5.5h-147v70h526zM328 182v374h-94q9 -10 9 -31v-131q0 -87 -90 -87h-27v-129q0 -19 6 -24.5t24 -5.5h138q20 0 27 7t7 27zM168 -90v95h83v-95h-83z" />
    <glyph glyph-name="uni0960" unicode="&#x960;" horiz-adv-x="706" 
d="M364 556v-289h82q-14 15 -14 52v75q0 88 96 88h53q96 0 96 -88v-107q0 -45 -22.5 -67t-73.5 -22h-33q-15 0 -20.5 -6t-5.5 -23v-34q0 -18 6 -23.5t24 -5.5h43v-70h-43q-18 0 -24 -5.5t-6 -24.5v-34q0 -18 6 -23.5t24 -5.5h89v-70h-113q-49 0 -72.5 21.5t-23.5 67.5v58
q0 45 39 48v3q-39 3 -39 49v49q0 20 11 29h-79v-198h-90v198h-23l-135 -198h-102l165 242l-58 113q-17 31 -32 42.5t-44 11.5h-33v72h51q53 0 77.5 -14t46.5 -54l78 -146h9v289h-294v70h749v-70h-365zM522 385v-89q0 -17 5.5 -23t22.5 -6h10q17 0 22 6t5 23v89q0 17 -5 23
t-22 6h-10q-17 0 -22.5 -6t-5.5 -23z" />
    <glyph glyph-name="uni0961" unicode="&#x961;" horiz-adv-x="541" 
d="M495 168h-50q-18 0 -24 -5.5t-6 -24.5v-33q0 -19 6 -24.5t24 -5.5h47v-70h-47q-18 0 -24 -5.5t-6 -24.5v-33q0 -19 6 -24.5t24 -5.5h93v-70h-117q-96 0 -96 89v58q0 45 39 48v3q-39 5 -39 49v66q0 78 79 83v174h-60q-19 0 -24.5 -6t-5.5 -24v-134h-90v134q0 18 -5.5 24
t-23.5 6h-32q-17 0 -23 -6t-6 -24v-281q0 -17 6 -22.5t23 -5.5h51v-73h-78q-48 0 -70 21t-22 64v308q0 89 90 89h86q46 0 49 -39h3q3 39 48 39h84v74h-424v70h581v-70h-66v-388z" />
    <glyph glyph-name="uni0964" unicode="&#x964;" horiz-adv-x="342" 
d="M214 657v-688h-86v688h86z" />
    <glyph glyph-name="uni0965" unicode="&#x965;" horiz-adv-x="523" 
d="M395 657v-688h-86v688h86zM214 657v-688h-86v688h86z" />
    <glyph glyph-name="uni0966" unicode="&#x966;" horiz-adv-x="390" 
d="M252 102v422q0 18 -6 23.5t-24 5.5h-54q-18 0 -23.5 -5.5t-5.5 -23.5v-422q0 -18 5.5 -23.5t23.5 -5.5h54q18 0 24 5.5t6 23.5zM343 538v-450q0 -88 -93 -88h-109q-94 0 -94 88v450q0 88 94 88h109q93 0 93 -88z" />
    <glyph glyph-name="uni0967" unicode="&#x967;" horiz-adv-x="235" 
d="M183 626v-626h-91v553h-72v73h163z" />
    <glyph glyph-name="uni0968" unicode="&#x968;" horiz-adv-x="328" 
d="M115 524v-102h-90v116q0 88 93 88h86q94 0 94 -88v-63q0 -70 -35 -137l-135 -265h174v-73h-276v70l153 288q28 53 28 120v46q0 18 -5.5 23.5t-24.5 5.5h-32q-18 0 -24 -5.5t-6 -23.5z" />
    <glyph glyph-name="uni0969" unicode="&#x969;" horiz-adv-x="355" 
d="M119 524v-94h-90v108q0 88 93 88h92q94 0 94 -88v-158q0 -53 -40 -62q40 -9 40 -58v-172q0 -88 -94 -88h-92q-93 0 -93 88v107h90v-93q0 -18 6 -23.5t24 -5.5h39q18 0 24 5.5t6 23.5v150q0 18 -6 23.5t-24 5.5h-75v72h75q18 0 24 5.5t6 23.5v142q0 18 -6 23.5t-24 5.5
h-39q-18 0 -24 -5.5t-6 -23.5z" />
    <glyph glyph-name="uni096A" unicode="&#x96a;" horiz-adv-x="363" 
d="M363 198v-74h-56v-124h-87v124h-214v75l180 427h90l-184 -428h128v120h87v-120h56z" />
    <glyph glyph-name="uni096B" unicode="&#x96b;" horiz-adv-x="358" 
d="M132 391h97q94 0 94 -88v-215q0 -88 -94 -88h-96q-93 0 -93 88v111h91v-97q0 -18 6 -23.5t24 -5.5h41q18 0 24 5.5t6 23.5v187q0 18 -6 24t-24 6h-160v307h279v-73h-189v-162z" />
    <glyph glyph-name="uni096C" unicode="&#x96c;" horiz-adv-x="382" 
d="M137 360h110q93 0 93 -89v-183q0 -88 -93 -88h-106q-94 0 -94 88v450q0 88 94 88h103q93 0 93 -88v-108h-89v94q0 18 -6 23.5t-24 5.5h-51q-18 0 -24 -5.5t-6 -23.5v-164zM250 102v157q0 17 -6 23t-24 6h-83v-186q0 -18 6 -23.5t24 -5.5h53q18 0 24 5.5t6 23.5z" />
    <glyph glyph-name="uni096D" unicode="&#x96d;" horiz-adv-x="291" 
d="M286 626v-56l-168 -570h-92l163 551h-183v75h280z" />
    <glyph glyph-name="uni096E" unicode="&#x96e;" horiz-adv-x="389" 
d="M342 538v-161q0 -53 -39 -62q39 -11 39 -59v-168q0 -88 -93 -88h-109q-93 0 -93 88v168q0 48 39 59q-39 9 -39 62v161q0 88 93 88h109q93 0 93 -88zM253 102v150q0 17 -5.5 23t-23.5 6h-59q-18 0 -23.5 -6t-5.5 -23v-150q0 -18 5.5 -24t23.5 -6h59q18 0 23.5 6t5.5 24z
M253 379v146q0 17 -5.5 23t-23.5 6h-59q-18 0 -23.5 -6t-5.5 -23v-146q0 -17 5.5 -23t23.5 -6h59q18 0 23.5 6t5.5 23z" />
    <glyph glyph-name="uni096F" unicode="&#x96f;" horiz-adv-x="378" 
d="M131 626h106q94 0 94 -88v-450q0 -88 -94 -88h-103q-94 0 -94 88v107h90v-93q0 -18 5.5 -23.5t24.5 -5.5h51q18 0 23.5 5.5t5.5 23.5v154h-109q-93 0 -93 89v193q0 88 93 88zM158 327h82v197q0 18 -5.5 23.5t-23.5 5.5h-53q-18 0 -24 -5.5t-6 -23.5v-168q0 -17 6 -23
t24 -6z" />
    <glyph glyph-name="uni0970" unicode="&#x970;" horiz-adv-x="362" 
d="M132 308q0 -66 49 -66t49 66t-49 66t-49 -66zM58 308q0 62 33 96.5t89.5 34.5t90 -34.5t33.5 -96.5t-33.5 -96.5t-90 -34.5t-89.5 34.5t-33 96.5z" />
    <glyph glyph-name="uni0972" unicode="&#x972;" horiz-adv-x="489" 
d="M532 811h80v-56q0 -83 -94 -83h-120q-94 0 -94 83v56h80v-47q0 -18 5.5 -24t24.5 -6h88q19 0 24.5 6t5.5 24v47zM568 626v-70h-72v-556h-89v282h-98v-117q0 -87 -92 -87h-91q-92 0 -92 87v93h91v-81q0 -18 5.5 -23.5t23.5 -5.5h36q17 0 23 5.5t6 23.5v107q0 18 -7 24.5
t-25 6.5h-60v71h60q18 0 25 6.5t7 25.5v110q0 18 -6 23.5t-23 5.5h-36q-18 0 -23.5 -5.5t-5.5 -23.5v-79h-91v91q0 87 92 87h91q92 0 92 -87v-139q0 -44 -39 -49v-1h137v275h161z" />
    <glyph glyph-name="uni200B" unicode="&#x200b;" horiz-adv-x="0" 
 />
    <glyph glyph-name="uni200C" unicode="&#x200c;" horiz-adv-x="0" 
d="M24 -230h-47v1041h47v-1041z" />
    <glyph glyph-name="uni200D" unicode="&#x200d;" horiz-adv-x="0" 
d="M24 -230h-47v865l-69 -73l-33 33l93 93l-95 95l33 33l95 -95l96 95l32 -32l-96 -96l96 -95l-33 -33l-72 75v-865z" />
    <glyph glyph-name="endash" unicode="&#x2013;" horiz-adv-x="420" 
d="M25 259v70h347v-70h-347z" />
    <glyph glyph-name="emdash" unicode="&#x2014;" horiz-adv-x="536" 
d="M10 259v70h514v-70h-514z" />
    <glyph glyph-name="quoteleft" unicode="&#x2018;" horiz-adv-x="166" 
d="M133 364h-101v64l70 198h31v-262z" />
    <glyph glyph-name="quoteright" unicode="&#x2019;" horiz-adv-x="166" 
d="M32 626h101v-65l-70 -197h-31v262z" />
    <glyph glyph-name="quotesinglbase" unicode="&#x201a;" horiz-adv-x="165" 
d="M32 123h101v-65l-69 -198h-32v263z" />
    <glyph glyph-name="quotedblleft" unicode="&#x201c;" horiz-adv-x="314" 
d="M133 364h-101v64l70 198h31v-262zM282 364h-101v64l70 198h31v-262z" />
    <glyph glyph-name="quotedblright" unicode="&#x201d;" horiz-adv-x="314" 
d="M181 626h101v-65l-70 -197h-31v262zM32 626h101v-65l-70 -197h-31v262z" />
    <glyph glyph-name="quotedblbase" unicode="&#x201e;" horiz-adv-x="314" 
d="M181 123h101v-65l-70 -198h-31v263zM32 123h101v-65l-70 -198h-31v263z" />
    <glyph glyph-name="dagger" unicode="&#x2020;" horiz-adv-x="362" 
d="M356 465v-71h-130v-504h-90v504h-130v71h130v161h90v-161h130z" />
    <glyph glyph-name="daggerdbl" unicode="&#x2021;" horiz-adv-x="384" 
d="M367 394h-130v-315h130v-70h-130v-162h-90v162h-130v70h130v315h-130v71h130v161h90v-161h130v-71z" />
    <glyph glyph-name="bullet" unicode="&#x2022;" horiz-adv-x="396" 
d="M67 321q0 54 38.5 92.5t92.5 38.5t92.5 -38.5t38.5 -92.5t-38.5 -92.5t-92.5 -38.5t-92.5 38.5t-38.5 92.5z" />
    <glyph glyph-name="ellipsis" unicode="&#x2026;" horiz-adv-x="555" 
d="M441 0v119h109v-119h-109zM247 0v119h108v-119h-108zM52 0v119h109v-119h-109z" />
    <glyph glyph-name="perthousand" unicode="&#x2030;" horiz-adv-x="915" 
d="M812 88v162q0 17 -5 22t-22 5h-21q-17 0 -21.5 -5t-4.5 -22v-162q0 -17 4.5 -22t21.5 -5h21q17 0 22 5t5 22zM886 261v-184q0 -77 -78 -77h-67q-77 0 -77 77v184q0 77 77 77h67q78 0 78 -77zM429 626h75l-292 -626h-74zM538 88v162q0 17 -4.5 22t-21.5 5h-21
q-17 0 -22 -5t-5 -22v-162q0 -17 5 -22t22 -5h21q17 0 21.5 5t4.5 22zM177 377v161q0 17 -5 22t-21 5h-22q-17 0 -21.5 -5t-4.5 -22v-161q0 -18 4.5 -23t21.5 -5h22q16 0 21 5.5t5 22.5zM612 261v-184q0 -77 -77 -77h-67q-78 0 -78 77v184q0 77 78 77h67q77 0 77 -77z
M251 549v-184q0 -77 -78 -77h-66q-78 0 -78 77v184q0 39 18.5 58t59.5 19h66q41 0 59.5 -19t18.5 -58z" />
    <glyph glyph-name="guilsinglleft" unicode="&#x2039;" horiz-adv-x="290" 
d="M156 104l-119 155l119 155h96l-120 -156l120 -154h-96z" />
    <glyph glyph-name="guilsinglright" unicode="&#x203a;" horiz-adv-x="291" 
d="M252 259l-119 -155h-96l121 154l-121 156h96z" />
    <glyph glyph-name="fraction" unicode="&#x2044;" horiz-adv-x="390" 
d="M275 700h84l-273 -820h-84z" />
    <glyph glyph-name="Euro" unicode="&#x20ac;" horiz-adv-x="399" 
d="M362 430h-91v96q0 18 -6 23.5t-24 5.5h-51q-18 0 -23.5 -5.5t-5.5 -23.5v-121h87v-66h-87v-51h87v-67h-87v-122q0 -18 5.5 -23.5t23.5 -5.5h51q18 0 24 5.5t6 23.5v95h91v-106q0 -89 -93 -89h-106q-94 0 -94 89v133h-46v67h46v51h-46v66h46v133q0 88 94 88h106
q93 0 93 -88v-108z" />
    <glyph glyph-name="uni20B9" unicode="&#x20b9;" horiz-adv-x="367" 
d="M319 626v-67h-67q10 -14 10 -43v-42h57v-68h-57v-66q0 -46 -23.5 -67.5t-74.5 -21.5h-30l148 -251h-96l-146 251v70h102q18 0 23.5 5.5t5.5 24.5v55h-131v68h131v56q0 17 -5.5 23t-23.5 6h-102v67h279z" />
    <glyph glyph-name="trademark" unicode="&#x2122;" horiz-adv-x="626" 
d="M596 626v-324h-72v209l-49 -154h-69l-51 154v-209h-71v324h94l62 -185l61 185h95zM6 560v66h242v-66h-82v-258h-79v258h-81z" />
    <glyph glyph-name="uni2126" unicode="&#x2126;" horiz-adv-x="404" 
d="M393 73v-73h-172v73h12q17 0 22.5 6.5t5.5 24.5v420q0 18 -6 23.5t-24 5.5h-58q-18 0 -24 -5.5t-6 -23.5v-420q0 -18 5.5 -24.5t22.5 -6.5h12v-73h-172v73h66q-24 15 -24 58v407q0 88 93 88h112q93 0 93 -88v-407q0 -43 -24 -58h66z" />
    <glyph glyph-name="product" unicode="&#x220f;" horiz-adv-x="436" 
d="M383 590h1v-590h-91v555h-135v-467q0 -88 -94 -88h-56v77h30q18 0 23.5 5.5t5.5 23.5v520h316v-36z" />
    <glyph glyph-name="minus" unicode="&#x2212;" horiz-adv-x="440" 
d="M23 276v74h362v-74h-362z" />
    <glyph glyph-name="uni2215" unicode="&#x2215;" horiz-adv-x="390" 
d="M275 700h84l-273 -820h-84z" />
    <glyph glyph-name="uni2219" unicode="&#x2219;" horiz-adv-x="165" 
d="M32 252v123h101v-123h-101z" />
    <glyph glyph-name="infinity" unicode="&#x221e;" horiz-adv-x="590" 
d="M414 494h47q92 0 92 -85v-121q0 -86 -92 -86h-38q-43 0 -64 11t-47 47l-17 25q-35 -55 -58.5 -69t-76.5 -14h-32q-91 0 -91 86v121q0 85 91 85h37q40 0 59.5 -12.5t46.5 -48.5l22 -31l17 26q27 42 44 54t60 12zM144 267h31q30 0 49 29l31 47l-36 52q-14 19 -24 26.5
t-29 7.5h-22q-20 0 -25.5 -7t-5.5 -27v-94q0 -21 5.5 -27.5t25.5 -6.5zM477 301v95q0 20 -5.5 27t-25.5 7h-42q-12 0 -18.5 -5.5t-17.5 -20.5l-37 -60l41 -54q17 -23 42 -23h32q20 0 25.5 6.5t5.5 27.5z" />
    <glyph glyph-name="integral" unicode="&#x222b;" horiz-adv-x="293" 
d="M194 619v-653q0 -89 -93 -89h-75v77h48q17 0 22.5 5.5t7.5 23.5v653q0 89 93 89h74v-77h-47q-18 0 -24 -6t-6 -23z" />
    <glyph glyph-name="approxequal" unicode="&#x2248;" horiz-adv-x="491" 
d="M326 200q-30 0 -54.5 12t-38.5 26q-37 39 -75 39q-29 0 -29 -34v-42h-83v61q0 81 84 81h37q35 0 62 -19.5t52 -38.5t48 -19t28 7.5t5 26.5v42h84v-61q0 -81 -85 -81h-35zM326 375q-30 0 -54.5 12t-38.5 27q-37 38 -75 38q-17 0 -23 -8t-6 -26v-42h-83v61q0 81 84 81h37
q50 0 88.5 -38.5t79.5 -38.5q17 0 22 8t5 27v41h84v-61q0 -81 -85 -81h-35z" />
    <glyph glyph-name="notequal" unicode="&#x2260;" horiz-adv-x="486" 
d="M442 319h-163l-3 -6h166v-73h-201l-66 -136h-66l66 136h-130v73h165l3 6h-168v73h203l63 131h67l-63 -131h127v-73z" />
    <glyph glyph-name="lessequal" unicode="&#x2264;" horiz-adv-x="455" 
d="M402 184v-69h-365v69h365zM402 447l-276 -76l276 -77v-79l-365 123v71l365 115v-77z" />
    <glyph glyph-name="greaterequal" unicode="&#x2265;" horiz-adv-x="455" 
d="M45 115v69h365v-69h-365zM320 371l-275 76v77l365 -115v-71l-365 -123v79z" />
    <glyph glyph-name="lozenge" unicode="&#x25ca;" horiz-adv-x="499" 
d="M294 626l162 -312l-162 -314h-81l-161 314l161 312h81zM254 82l110 232l-110 231l-110 -231z" />
    <glyph glyph-name="uni25CC" unicode="&#x25cc;" horiz-adv-x="421" 
d="M175 151h66v-73h-66v73zM175 485h66v-73h-66v73zM279 412v73q66 0 66 -73h-66zM279 374h66v-73h-66v73zM279 262h66v-73h-66v73zM279 151h66q0 -30 -18 -51.5t-48 -21.5v73zM137 412h-66q0 34 18 53.5t48 19.5v-73zM71 374h66v-73h-66v73zM71 262h66v-73h-66v73zM137 151
v-73q-29 0 -47.5 20t-18.5 53h66z" />
    <glyph glyph-name="commaaccent" unicode="&#xf6c3;" horiz-adv-x="421" 
d="M161 -50h99v-49l-66 -130h-33v179z" />
    <glyph glyph-name="fi" unicode="&#xfb01;" horiz-adv-x="376" 
d="M243 669h90v-75h-90v75zM333 488v-488h-90v415h-99v-415h-89v415h-49v73h49v93q0 88 93 88h46v-75h-20q-18 0 -24 -6t-6 -23v-77h189z" />
    <glyph glyph-name="fl" unicode="&#xfb02;" horiz-adv-x="376" 
d="M243 669h90v-669h-90v415h-99v-415h-89v415h-49v73h49v93q0 88 93 88h46v-75h-20q-18 0 -24 -6t-6 -23v-77h99v181z" />
    <glyph glyph-name="itfLogo" horiz-adv-x="1648" 
d="M1327 224v185h196v-185h-196zM1327 449v185h196v-185h-196zM1091 0v634h196v-634h-196zM855 449v185h196v-185h-196zM619 0v634h196v-634h-196zM383 449v185h196v-185h-196zM147 0v634h196v-634h-196z" />
    <glyph glyph-name="uni0915094D" horiz-adv-x="381" 
d="M469 556h-150v-114q11 10 36 10h114v-70h-118q-18 0 -25 -6.5t-7 -25.5v-350h-90v89q-11 -11 -37 -11h-62q-90 0 -90 89v230q0 44 22 64.5t70 20.5h56v-68h-29q-17 0 -23 -5.5t-6 -23.5v-207q0 -18 6 -24t23 -6h38q18 0 25 7t7 25v376h-249v70h489v-70z" />
    <glyph glyph-name="uni0916094D" horiz-adv-x="469" 
d="M-20 626h576v-70h-274q8 -8 8 -26v-213q0 -86 -92 -86h-61v-127q0 -20 5.5 -25.5t25.5 -5.5h192v-73h-213q-52 0 -76.5 21t-24.5 66v384h91v-170h31q20 0 26 6.5t6 25.5v191q0 20 -6 26t-26 6h-188v70zM421 374v-164q0 -18 5.5 -23.5t23.5 -5.5h106v-71h-132
q-90 0 -90 89v187q0 44 22 64.5t70 20.5h60v-68h-36q-18 0 -23.5 -5.5t-5.5 -23.5z" />
    <glyph glyph-name="uni0917094D" horiz-adv-x="363" 
d="M384 626v-70h-68v-389q0 -46 -23 -67.5t-73 -21.5h-90q-50 0 -73 21.5t-23 67.5v182q0 87 100 87h92v120h-246v70h404zM153 148h43q18 0 24 5.5t6 24.5v187h-71q-19 0 -25 -5.5t-6 -25.5v-156q0 -18 6 -24t23 -6z" />
    <glyph glyph-name="uni0918094D" horiz-adv-x="246" 
d="M342 556h-174q-19 0 -25 -6t-6 -26v-108q0 -18 5.5 -23.5t23.5 -5.5h61v-71h-61q-18 0 -23.5 -5.5t-5.5 -23.5v-109q0 -19 5.5 -24.5t23.5 -5.5h176v-70h-199q-97 0 -97 89v134q0 45 39 48v3q-39 3 -39 49v129q0 18 8 26h-74v70h362v-70z" />
    <glyph glyph-name="uni0919094D" horiz-adv-x="394" 
d="M-20 626h434v-70h-107v-142h-133q-18 0 -23.5 -5.5t-5.5 -23.5v-60q0 -17 5.5 -22.5t23.5 -5.5h54q48 0 70 -21t22 -64v-127q0 -43 -22 -64t-70 -21h-92q-48 0 -70 21t-22 64v79h90v-67q0 -18 5.5 -23.5t22.5 -5.5h39q17 0 23 5.5t6 23.5v103q0 17 -6 22.5t-23 5.5h-55
q-47 0 -69 21t-22 64v84q0 44 21.5 64.5t69.5 20.5h71v74h-237v70zM307 303v95h83v-95h-83zM134 -61h95l106 -134h-95z" />
    <glyph glyph-name="uni091A094D" horiz-adv-x="216" 
d="M-20 626h331v-70h-331v70zM153 382v-204q0 -18 5.5 -24t23.5 -6h129v-70h-158q-90 0 -90 89v213q0 23 11 32h-73v70h219v-70h-38q-18 0 -23.5 -6t-5.5 -24z" />
    <glyph glyph-name="uni091B094D" horiz-adv-x="543" 
d="M563 626v-70h-374l7 -1q-37 2 -46 -2.5t-9 -28.5v-149q0 -19 5.5 -24.5t23.5 -5.5h36v-70h-36q-18 0 -23.5 -5.5t-5.5 -24.5v-145q0 -18 5.5 -23.5t23.5 -5.5h211q18 0 23.5 5.5t5.5 23.5v287q0 18 -5.5 23.5t-23.5 5.5h-19q-18 0 -23.5 -5.5t-5.5 -23.5v-112
q0 -18 5.5 -23.5t23.5 -5.5h18v-66h-37q-88 0 -88 85v132q0 85 92 85h57q93 0 93 -85v-308q0 -89 -97 -89h-253q-96 0 -96 89v171q0 43 39 48v2q-39 5 -39 49v171q0 16 7 26h-78v70h583z" />
    <glyph glyph-name="uni091C094D" horiz-adv-x="346" 
d="M134 482v-304q0 -19 6 -24.5t24 -5.5h31q17 0 23 6t6 24v304h209v-70h-119v-245q0 -46 -23 -67.5t-73 -21.5h-78q-50 0 -73 21.5t-23 67.5v315h90zM433 626v-70h-453v70h453z" />
    <glyph glyph-name="uni091D094D" horiz-adv-x="376" 
d="M318 414h-156q-18 0 -23.5 -5.5t-5.5 -23.5v-36q0 -18 5.5 -23.5t23.5 -5.5h300v-68h-136q2 -14 2 -21v-84q0 -44 -22 -64.5t-70 -20.5h-102v-75h-90v198h90v-55h74q18 0 24 5.5t6 23.5v64q0 18 -6 23.5t-24 5.5h-74q-48 0 -69.5 20.5t-21.5 64.5v60q0 44 21.5 64.5
t69.5 20.5h93v74h-247v70h482v-70h-144v-142z" />
    <glyph glyph-name="uni091E094D" horiz-adv-x="339" 
d="M-20 626h453v-70h-453v70zM294 395v-62h139v-71h-139v-95q0 -46 -23 -67.5t-73 -21.5h-74q-50 0 -73 21.5t-23 67.5v92h90v-81q0 -19 6 -24.5t24 -5.5h27q17 0 23 6t6 24v205q0 18 -5.5 23.5t-23.5 5.5h-89v70h117q91 0 91 -87z" />
    <glyph glyph-name="uni091F094D" horiz-adv-x="366" 
d="M-20 626h406v-70h-69v-144h-145q-18 0 -24 -5.5t-6 -24.5v-282q0 -19 6 -24.5t24 -5.5h30q18 0 24 5.5t6 24.5v103h90v-114q0 -46 -23 -67.5t-73 -21.5h-78q-50 0 -73 21.5t-23 67.5v308q0 44 22 64.5t70 20.5h83v74h-247v70zM143 -61h95l106 -134h-95z" />
    <glyph glyph-name="uni0920094D" horiz-adv-x="393" 
d="M413 556h-169v-74h7q50 0 73 -21t23 -68v-304q0 -46 -23 -67.5t-73 -21.5h-103q-50 0 -73 21.5t-23 67.5v304q0 47 23 68t73 21h6v74h-174v70h433v-70zM257 100v282q0 19 -6 24.5t-24 5.5h-55q-18 0 -24 -5.5t-6 -24.5v-282q0 -19 6 -24.5t24 -5.5h55q18 0 24 5.5t6 24.5
zM134 -61h95l106 -134h-95z" />
    <glyph glyph-name="uni0921094D" horiz-adv-x="376" 
d="M-20 626h416v-70h-89v-142h-133q-18 0 -23.5 -5.5t-5.5 -23.5v-60q0 -17 5.5 -22.5t23.5 -5.5h54q48 0 70 -21t22 -64v-127q0 -43 -22 -64t-70 -21h-92q-48 0 -70 21t-22 64v79h90v-67q0 -18 5.5 -23.5t22.5 -5.5h39q17 0 23 5.5t6 23.5v103q0 17 -6 22.5t-23 5.5h-55
q-47 0 -69 21t-22 64v84q0 44 21.5 64.5t69.5 20.5h71v74h-237v70zM134 -61h95l106 -134h-95z" />
    <glyph glyph-name="uni0922094D" horiz-adv-x="406" 
d="M317 412h-145q-18 0 -24 -5.5t-6 -24.5v-282q0 -19 6 -24.5t24 -5.5h65q17 0 23 6t6 24v88q0 18 -6 23.5t-23 5.5h-42v70h65q51 0 74 -21t23 -68v-109q0 -46 -23 -67.5t-74 -21.5h-112q-50 0 -73 21.5t-23 67.5v308q0 44 22 64.5t70 20.5h83v74h-247v70h446v-70h-109
v-144zM143 -61h95l106 -134h-95z" />
    <glyph glyph-name="uni0923094D" horiz-adv-x="348" 
d="M378 626v-70h-64v-389q0 -46 -23 -67.5t-73 -21.5h-78q-50 0 -73 21.5t-23 67.5v389h-64v70h398zM224 178v378h-90v-378q0 -19 6 -24.5t24 -5.5h31q17 0 23 6t6 24z" />
    <glyph glyph-name="uni0924094D" horiz-adv-x="204" 
d="M276 482v-70h-113q-17 0 -23 -5.5t-6 -23.5v-282q0 -17 6 -22.5t23 -5.5h30v-73h-57q-48 0 -70 21t-22 64v312q0 44 22 64.5t70 20.5h140zM276 626v-70h-296v70h296z" />
    <glyph glyph-name="uni0925094D" horiz-adv-x="328" 
d="M430 78h-287q-96 0 -96 89v196h102q18 0 24 5.5t6 22.5v141q0 18 -6 23.5t-24 5.5h-5q-18 0 -24 -5.5t-6 -23.5v-43h-60v58q0 84 88 84h37q90 0 90 -84v-168q0 -87 -92 -87h-40v-114q0 -18 5.5 -24t23.5 -6h264v-70z" />
    <glyph glyph-name="uni0926094D" horiz-adv-x="397" 
d="M323 -61l106 -134h-95l-106 134h95zM237 0v89q-11 -11 -36 -11h-56q-50 0 -73 21.5t-23 67.5v230q0 44 22 64.5t70 20.5h91v74h-255v70h417v-70h-72v-144h-153q-18 0 -24 -5.5t-6 -24.5v-204q0 -18 5.5 -24t23.5 -6h37q18 0 25 7t7 25v91h90v-271h-90z" />
    <glyph glyph-name="uni0927094D" horiz-adv-x="349" 
d="M158 409q0 -19 5.5 -24.5t23.5 -5.5h68v-70h-68q-18 0 -23.5 -5.5t-5.5 -24.5v-101q0 -19 5.5 -24.5t23.5 -5.5h262v-70h-292q-90 0 -90 85v131q0 43 39 48v2q-39 5 -39 49v154q0 84 90 84h39q90 0 90 -84v-58h-60v43q0 18 -6 23.5t-24 5.5h-9q-18 0 -23.5 -5.5
t-5.5 -23.5v-123z" />
    <glyph glyph-name="uni0928094D" horiz-adv-x="331" 
d="M-20 626h444v-70h-444v70zM34 167v230q0 44 22 64.5t70 20.5h298v-70h-123v-245q0 -46 -23.5 -67.5t-73.5 -21.5h-74q-50 0 -73 21.5t-23 67.5zM210 412h-57q-17 0 -23 -5.5t-6 -23.5v-205q0 -19 6 -24.5t24 -5.5h27q17 0 23 6t6 24v234z" />
    <glyph glyph-name="uni092A094D" horiz-adv-x="183" 
d="M282 556h-145v-378q0 -19 5.5 -24.5t23.5 -5.5h116v-70h-146q-90 0 -90 89v389h-66v70h302v-70z" />
    <glyph glyph-name="uni092B094D" horiz-adv-x="372" 
d="M464 556h-139v-117q11 11 37 11h102v-70h-107q-18 0 -25 -7t-7 -25v-348h-90v89q-11 -11 -36 -11h-63q-90 0 -90 89v389h-66v70h484v-70zM235 180v376h-98v-378q0 -19 5.5 -24.5t23.5 -5.5h38q17 0 24 7t7 25z" />
    <glyph glyph-name="uni092C094D" horiz-adv-x="231" 
d="M136 178q0 -18 6 -24t23 -6h99q-76 134 -101 182.5t-27 51.5v-204zM136 78q-90 0 -90 89v230q0 44 22 64.5t70 20.5h104v-68h-75q100 -175 149 -277v-59h-180zM316 626v-70h-336v70h336z" />
    <glyph glyph-name="uni092D094D" horiz-adv-x="387" 
d="M483 409v-70h-158v-172q0 -46 -23 -67.5t-73 -21.5h-89q-50 0 -73 21.5t-23 67.5v157q0 44 22 64.5t70 20.5h99v119q0 18 -6 23.5t-24 5.5h-33q-18 0 -24 -5.5t-6 -23.5v-49h-90v61q0 87 92 87h89q92 0 92 -87v-131h158zM235 178v161h-72q-17 0 -23 -5.5t-6 -23.5v-132
q0 -19 6 -24.5t24 -5.5h41q18 0 24 5.5t6 24.5z" />
    <glyph glyph-name="uni092E094D" horiz-adv-x="369" 
d="M457 556h-142v-124h142v-70h-142v-171q0 -47 -23 -68t-73 -21h-89q-50 0 -73 21t-23 68v156q0 43 22 64t70 21h99v124h-247v70h479v-70zM225 202v160h-75q-18 0 -24 -5.5t-6 -23.5v-131q0 -19 6 -24.5t24 -5.5h45q18 0 24 5.5t6 24.5z" />
    <glyph glyph-name="uni092F094D" horiz-adv-x="276" 
d="M372 626v-70h-138q9 -10 9 -31v-131q0 -87 -90 -87h-27v-129q0 -19 6 -24.5t24 -5.5h216v-70h-240q-96 0 -96 89v211h90q17 0 23 5.5t6 22.5v117q0 22 -7 27.5t-37 5.5h-147v70h408z" />
    <glyph glyph-name="uni0930094D" horiz-adv-x="361" 
d="M310 -61l106 -134h-95l-106 134h95zM319 210v-125q0 -43 -22 -64t-70 -21h-91q-48 0 -70 21t-22 64v366h90v-103h65q19 0 25.5 6t6.5 26v144q0 20 -6.5 26t-25.5 6h-219v70h401v-70h-68q8 -8 8 -26v-166q0 -86 -100 -86h-87v-181q0 -18 6 -23.5t23 -5.5h38q17 0 22.5 5.5
t5.5 23.5v113h90z" />
    <glyph glyph-name="uni0932094D" horiz-adv-x="354" 
d="M223 482q46 0 49 -39h3q3 39 48 39h113v-70h-90q-18 0 -23.5 -6t-5.5 -24v-197h-90v197q0 18 -5.5 24t-23.5 6h-32q-18 0 -23.5 -6t-5.5 -24v-281q0 -17 6 -22.5t23 -5.5h59v-73h-87q-47 0 -69 21t-22 64v308q0 89 90 89h86zM436 626v-70h-456v70h456z" />
    <glyph glyph-name="uni0933094D" horiz-adv-x="566" 
d="M239 382q0 18 -5.5 24t-23.5 6h-54q-18 0 -24 -5.5t-6 -24.5v-204q0 -19 6 -24.5t24 -5.5h54q18 0 23.5 6t5.5 24v204zM440 382q0 19 -5.5 24.5t-23.5 5.5h-54q-19 0 -24.5 -6t-5.5 -24v-204q0 -18 5.5 -24t24.5 -6h54q18 0 23.5 5.5t5.5 24.5v204zM441 482q89 0 89 -89
v-226q0 -89 -89 -89h-103q-49 0 -52 39h-3q-3 -39 -53 -39h-104q-90 0 -90 89v226q0 89 90 89h104q50 0 53 -39h3q3 39 52 39h103zM602 626v-70h-638v70h638z" />
    <glyph glyph-name="uni0935094D" horiz-adv-x="183" 
d="M195 482v-68h-29q-18 0 -23.5 -5.5t-5.5 -23.5v-207q0 -19 5.5 -24.5t23.5 -5.5h116v-70h-146q-90 0 -90 89v230q0 44 22 64.5t70 20.5h57zM282 626v-70h-302v70h302z" />
    <glyph glyph-name="uni0936094D" horiz-adv-x="377" 
d="M225 261h-87v-164q0 -18 6 -23.5t24 -5.5h37q17 0 22.5 5.5t5.5 23.5v96h90v-108q0 -43 -22 -64t-69 -21h-92q-48 0 -70 21t-22 64v296h90v-50h65q19 0 25.5 6.5t6.5 25.5v166q0 18 -6 23.5t-24 5.5h-37q-17 0 -22.5 -5.5t-5.5 -23.5v-77h-90v89q0 87 92 87h91
q92 0 92 -87v-194q0 -86 -100 -86z" />
    <glyph glyph-name="uni0937094D" horiz-adv-x="230" 
d="M321 626v-70h-180l98 -196q24 -48 73 -174l2 -56q-9 -52 -68 -52h-104q-90 0 -90 89v389h-72v70h341zM142 349v-171q0 -18 6 -24t23 -6h79q25 0 29 15l-97 198l-49 109q9 -50 9 -121z" />
    <glyph glyph-name="uni0938094D" horiz-adv-x="357" 
d="M430 626v-70h-117q8 -8 8 -26v-129q0 -38 -15 -53h124v-70h-296v-181q0 -18 6 -23.5t23 -5.5h38q17 0 22.5 5.5t5.5 23.5v113h90v-125q0 -43 -22 -64t-70 -21h-91q-48 0 -70 21t-22 64v366h90v-103h65q19 0 25.5 6t6.5 26v144q0 20 -6.5 26t-25.5 6h-219v70h450z" />
    <glyph glyph-name="uni0939094D" horiz-adv-x="362" 
d="M337 412h-166q-17 0 -23 -5.5t-6 -22.5v-42q0 -17 6 -22.5t23 -5.5h280v-71h-280q-17 0 -23 -5.5t-6 -23.5v-114q0 -18 6 -24t23 -6h174v-70h-197q-96 0 -96 89v139q0 43 39 48v2q-39 5 -39 49v70q0 44 22 64.5t70 20.5h103v74h-267v70h471v-70h-114v-144z" />
    <glyph glyph-name="uni0915093C094D" horiz-adv-x="381" 
d="M469 556h-150v-114q11 10 36 10h114v-70h-118q-18 0 -25 -6.5t-7 -25.5v-350h-90v89q-11 -11 -37 -11h-62q-90 0 -90 89v230q0 44 22 64.5t70 20.5h56v-68h-29q-17 0 -23 -5.5t-6 -23.5v-207q0 -18 6 -24t23 -6h38q18 0 25 7t7 25v376h-249v70h489v-70zM60 -72v95h83v-95
h-83z" />
    <glyph glyph-name="uni0916093C094D" horiz-adv-x="469" 
d="M-20 626h576v-70h-274q8 -8 8 -26v-213q0 -86 -92 -86h-61v-127q0 -20 5.5 -25.5t25.5 -5.5h192v-73h-213q-52 0 -76.5 21t-24.5 66v384h91v-170h31q20 0 26 6.5t6 25.5v191q0 20 -6 26t-26 6h-188v70zM421 374v-164q0 -18 5.5 -23.5t23.5 -5.5h106v-71h-132
q-90 0 -90 89v187q0 44 22 64.5t70 20.5h60v-68h-36q-18 0 -23.5 -5.5t-5.5 -23.5zM134 -154v95h83v-95h-83z" />
    <glyph glyph-name="uni0917093C094D" horiz-adv-x="363" 
d="M384 626v-70h-68v-389q0 -46 -23 -67.5t-73 -21.5h-90q-50 0 -73 21.5t-23 67.5v182q0 87 100 87h92v120h-246v70h404zM153 148h43q18 0 24 5.5t6 24.5v187h-71q-19 0 -25 -5.5t-6 -25.5v-156q0 -18 6 -24t23 -6zM130 -96v95h83v-95h-83z" />
    <glyph glyph-name="uni091C093C094D" horiz-adv-x="346" 
d="M134 482v-304q0 -19 6 -24.5t24 -5.5h31q17 0 23 6t6 24v304h209v-70h-119v-245q0 -46 -23 -67.5t-73 -21.5h-78q-50 0 -73 21.5t-23 67.5v315h90zM433 626v-70h-453v70h453zM134 0h83v-95h-83v95z" />
    <glyph glyph-name="uni0928093C094D" horiz-adv-x="331" 
d="M-20 626h444v-70h-444v70zM34 167v230q0 44 22 64.5t70 20.5h298v-70h-123v-245q0 -46 -23.5 -67.5t-73.5 -21.5h-74q-50 0 -73 21.5t-23 67.5zM210 412h-57q-17 0 -23 -5.5t-6 -23.5v-205q0 -19 6 -24.5t24 -5.5h27q17 0 23 6t6 24v234zM218 -101v95h83v-95h-83z" />
    <glyph glyph-name="uni092B093C094D" horiz-adv-x="427" 
d="M464 556h-139v-117q11 11 37 11h102v-70h-107q-18 0 -25 -7t-7 -25v-348h-90v89q-11 -11 -36 -11h-63q-90 0 -90 89v389h-66v70h484v-70zM235 180v376h-98v-378q0 -19 5.5 -24.5t23.5 -5.5h38q17 0 24 7t7 25zM83 -96v95h83v-95h-83z" />
    <glyph glyph-name="uni092F093C094D" horiz-adv-x="276" 
d="M372 626v-70h-138q9 -10 9 -31v-131q0 -87 -90 -87h-27v-129q0 -19 6 -24.5t24 -5.5h216v-70h-240q-96 0 -96 89v211h90q17 0 23 5.5t6 22.5v117q0 22 -7 27.5t-37 5.5h-147v70h408zM168 -90v95h83v-95h-83z" />
    <glyph glyph-name="itfStar" horiz-adv-x="672" 
d="M663 452l-218 -140q7 -16 48 -125.5t46 -121.5l-204 168q-20 -14 -205 -168l96 247q-14 8 -111 70t-110 70l261 -8q26 102 69 246l66 -246q136 8 262 8z" />
    <glyph glyph-name="uni09080902" horiz-adv-x="366" 
d="M343 731h71v-75h-71v75zM311 737v-111h75v-70h-75v-142h-158q-17 0 -23 -5.5t-6 -23.5v-36q0 -18 6 -23.5t23 -5.5h79q48 0 70 -21t22 -64v-88q0 -44 -22 -64.5t-70 -20.5h-98v-75h-90v198h90v-55h70q18 0 24 5.5t6 23.5v64q0 18 -6 23.5t-24 5.5h-78q-48 0 -70 20.5
t-22 64.5v60q0 44 22 64.5t70 20.5h95v74h-241v70h241v123q0 43 22 63.5t70 20.5h70v-68h-42q-18 0 -24 -5t-6 -23z" />
    <glyph glyph-name="uni09300941" horiz-adv-x="541" 
d="M561 626v-70h-248q8 -8 8 -26v-48h102q47 0 69 -21t22 -64v-132h-90v118q0 18 -5.5 23.5t-23.5 5.5h-74v-48q0 -86 -100 -86h-87v-181q0 -18 6 -23.5t23 -5.5h38q17 0 22.5 5.5t5.5 23.5v113h90v-125q0 -43 -22 -64t-70 -21h-91q-48 0 -70 21t-22 64v366h90v-103h65
q19 0 25.5 6t6.5 26v144q0 20 -6.5 26t-25.5 6h-219v70h581z" />
    <glyph glyph-name="uni09300942" horiz-adv-x="561" 
d="M581 626v-70h-268q8 -8 8 -26v-48h106q48 0 70 -21t22 -64v-212q0 -43 -22 -64t-70 -21h-61v73h34q17 0 23 5.5t6 22.5v182q0 18 -6 23.5t-23 5.5h-79v-48q0 -86 -100 -86h-87v-181q0 -18 6 -23.5t23 -5.5h38q17 0 22.5 5.5t5.5 23.5v113h90v-125q0 -43 -22 -64t-70 -21
h-91q-48 0 -70 21t-22 64v366h90v-103h65q19 0 25.5 6t6.5 26v144q0 20 -6.5 26t-25.5 6h-219v70h601z" />
    <glyph glyph-name="uni09390941" horiz-adv-x="389" 
d="M337 412h-166q-17 0 -23 -5.5t-6 -22.5v-41q0 -17 6 -22.5t23 -5.5h78q50 0 73 -21t23 -68v-55h-90v44q0 19 -6 24.5t-24 5.5h-54q-17 0 -23 -5.5t-6 -24.5v-115q0 -18 6 -24t23 -6h85q90 0 90 -89v-55q0 -89 -90 -89h-100q-59 0 -88.5 15.5t-56.5 62.5l-36 61h107
l24 -40q17 -28 54 -28h65q19 0 25 6t6 25v30q0 19 -6 25t-25 6h-77q-51 0 -73.5 21.5t-22.5 67.5v140q0 44 39 49v2q-39 5 -39 49v68q0 44 22 64.5t70 20.5h103v74h-267v70h437v-70h-80v-144z" />
    <glyph glyph-name="uni09390942" horiz-adv-x="397" 
d="M254 0h-47q-19 0 -25 -6t-6 -25v-30q0 -19 6 -25t25 -6h54v-71h-85q-88 0 -88 89v55q0 17 3 29q-39 17 -39 77v142q0 44 39 49v2q-39 5 -39 49v68q0 44 22 64.5t70 20.5h103v74h-267v70h437v-70h-80v-144h-166q-17 0 -23 -5.5t-6 -22.5v-41q0 -17 6 -22.5t23 -5.5h78
q50 0 73 -21t23 -68v-55h-90v44q0 19 -6 24.5t-24 5.5h-54q-17 0 -23 -5.5t-6 -24.5v-115q0 -18 6 -24t23 -6h84q55 0 80.5 -15t54.5 -60l97 -156h-103l-81 129q-19 32 -49 32z" />
    <glyph glyph-name="uni09260943" horiz-adv-x="374" 
d="M322 412h-153q-18 0 -24 -5.5t-6 -24.5v-204q0 -18 5.5 -24t23.5 -6h37q18 0 25 7t7 25v91h90v-339h-64q-18 0 -24 -5.5t-6 -22.5v-36q0 -17 6 -22.5t24 -5.5h109v-71h-137q-48 0 -70 21t-22 64v62q0 43 21.5 64t68.5 21h4v88q-11 -11 -36 -11h-56q-50 0 -73 21.5
t-23 67.5v230q0 44 22 64.5t70 20.5h91v74h-255v70h417v-70h-72v-144z" />
    <glyph glyph-name="uni09390943" horiz-adv-x="386" 
d="M334 414h-163q-17 0 -23 -5.5t-6 -22.5v-33q0 -17 6 -22.5t23 -5.5h80q69 0 69 -52q0 -23 -20 -56t-20 -41q0 -12 15 -12h39v-58h-65q-68 0 -68 51q0 22 19 53t19 39q0 12 -15 12h-53q-17 0 -23 -5.5t-6 -23.5v-136q0 -18 6 -24t23 -6h174v-66h-197q-96 0 -96 89v148
q0 45 39 48v3q-39 3 -39 49v60q0 44 22 64.5t70 20.5h100v74h-264v70h434v-70h-80v-142z" />
    <glyph glyph-name="uni094D0928.post" horiz-adv-x="195" 
d="M214 626v-70h-71v-556h-90v136l-123 -113q-14 -12 -14.5 -19.5t12.5 -20.5l28 -32l-67 -61l-40 45q-57 63 11 125l193 175v321h-72v70h233z" />
    <glyph glyph-name="uni094D092F.post" horiz-adv-x="488" 
d="M508 626v-70h-72v-556h-90v89q-11 -11 -35 -11h-161q-96 0 -96 89v126h90q17 0 23 5.5t6 22.5v66q0 18 -6 23.5t-23 5.5h-164v69h191q91 0 91 -87v-85q0 -87 -91 -87h-27v-48q0 -19 6 -24.5t24 -5.5h138q20 0 27 7t7 27v374h-366v70h528z" />
    <glyph glyph-name="uni094D0930.post" horiz-adv-x="195" 
d="M214 626v-70h-71v-556h-90v135l-176 -191h-101l277 298v314h-72v70h233z" />
    <glyph glyph-name="uni094D0930" horiz-adv-x="0" 
d="M-152 26h112l92 -167h-86l-62 124l-63 -124h-86z" />
    <glyph glyph-name="uni0930094D.1" horiz-adv-x="302" 
d="M-20 626h342v-70h-342v70zM322 378v-71h-124q-90 0 -90 87v70h88v-58q0 -17 6 -22.5t23 -5.5h97z" />
    <glyph glyph-name="uni0930094D.2" horiz-adv-x="0" 
d="M16 705h-38q-18 0 -23.5 -5t-5.5 -23v-71h-90v83q0 43 21.5 63.5t69.5 20.5h66v-68z" />
    <glyph glyph-name="uni0930094D0902" horiz-adv-x="0" 
d="M-21 731h71v-75h-71v75zM19 833v-68h-42q-18 0 -24 -5t-6 -23v-131h-90v143q0 43 22 63.5t70 20.5h70z" />
    <glyph glyph-name="uni093E0930094D" horiz-adv-x="195" 
d="M214 626v-70h-72v-556h-89v556h-72v70h71v63q0 43 21.5 63.5t69.5 20.5h66v-68h-38q-18 0 -23.5 -5t-5.5 -23v-51h72z" />
    <glyph glyph-name="uni093E0930094D0902" horiz-adv-x="195" 
d="M174 731h71v-75h-71v75zM142 737v-111h72v-70h-72v-556h-89v556h-72v70h71v123q0 43 22 63.5t70 20.5h70v-68h-42q-18 0 -24 -5t-6 -23z" />
    <glyph glyph-name="uni0930094D.aMatraI" horiz-adv-x="0" 
d="M67 705h-38q-18 0 -23.5 -5t-5.5 -23v-71h-90v83q0 43 21.5 63.5t69.5 20.5h66v-68z" />
    <glyph glyph-name="uni0902.aMatraI" horiz-adv-x="0" 
d="M22 752h83v-95h-83v95z" />
    <glyph glyph-name="uni0930094D0902.aMatraI" horiz-adv-x="0" 
d="M32 731h71v-75h-71v75zM72 833v-68h-42q-18 0 -24 -5t-6 -23v-131h-90v143q0 43 22 63.5t70 20.5h70z" />
    <glyph glyph-name="uni09400930094D" 
d="M217 781h-43q-20 0 -26 -6t-6 -26v-123h72v-70h-72v-556h-90v556h-72v70h72v94q0 20 -6 26t-26 6h-46q-20 0 -26 -6t-6 -26v-51h-90v68q0 85 88 85h98q57 0 57 -43h3v19q0 53 62 53h57v-70z" />
    <glyph glyph-name="uni09400902" 
d="M172 767h84v-95h-84v95zM142 737v-111h72v-70h-72v-556h-90v556h-72v70h72v94q0 20 -6 26t-26 6h-46q-21 0 -26.5 -5.5t-5.5 -26.5v-51h-90v68q0 85 88 85h114q88 0 88 -85z" />
    <glyph glyph-name="uni09400930094D0902" 
d="M177 741h71v-75h-71v75zM142 749v-123h72v-70h-72v-556h-90v556h-72v70h72v94q0 20 -6 26t-26 6h-46q-20 0 -26 -6t-6 -26v-51h-90v68q0 85 88 85h98q57 0 57 -43h3v19q0 53 62 53h57v-70h-43q-20 0 -26 -6t-6 -26z" />
    <glyph glyph-name="uni0940.aLong" 
d="M214 626v-70h-72v-556h-90v556h-72v70h72v94q0 20 -6 26t-26 6h-215q-21 0 -26.5 -6t-5.5 -26v-51h-90v68q0 85 88 85h283q88 0 88 -85v-111h72z" />
    <glyph glyph-name="uni09400930094D.aLong" 
d="M217 781h-43q-20 0 -26 -6t-6 -26v-123h72v-70h-72v-556h-90v556h-72v70h72v94q0 20 -6 26t-26 6h-215q-20 0 -26 -6t-6 -26v-51h-90v68q0 85 88 85h267q57 0 57 -43h3v19q0 53 62 53h57v-70z" />
    <glyph glyph-name="uni09400902.aLong" 
d="M172 767h84v-95h-84v95zM142 737v-111h72v-70h-72v-556h-90v556h-72v70h72v94q0 20 -6 26t-26 6h-215q-21 0 -26.5 -6t-5.5 -26v-51h-90v68q0 85 88 85h283q88 0 88 -85z" />
    <glyph glyph-name="uni09400930094D0902.aLong" 
d="M180 733h71v-74h-71v74zM142 749v-123h72v-70h-72v-556h-90v556h-72v70h72v94q0 20 -6 26t-26 6h-215q-20 0 -26 -6t-6 -26v-51h-90v68q0 85 88 85h267q57 0 57 -43h3v19q0 53 62 53h57v-70h-43q-20 0 -26 -6t-6 -26z" />
    <glyph glyph-name="uni09470930094D" horiz-adv-x="0" 
d="M-124 769q0 82 88 82h49v-70h-35q-20 0 -26 -6t-6 -26v-134h-84q-51 40 -110 119l-61 85h106l41 -58q30 -41 47 -90h2q-11 50 -11 98z" />
    <glyph glyph-name="uni09470902" horiz-adv-x="0" 
d="M-104 811h84v-95h-84v95zM-193 819l143 -204h-89q-36 32 -96 113l-66 91h108z" />
    <glyph glyph-name="uni09470930094D0902" horiz-adv-x="0" 
d="M-124 769q0 82 88 82h49v-70h-35q-20 0 -26 -6t-6 -26v-134h-84q-51 40 -110 119l-61 85h106l41 -58q30 -41 47 -90h2q-11 50 -11 98zM-32 740h71v-74h-71v74z" />
    <glyph glyph-name="uni09480930094D" horiz-adv-x="0" 
d="M-102 771q0 29 18 46t53 17h44v-70h-31q-21 0 -28.5 -7.5t-7.5 -27.5v-111h-87q-26 13 -103 76l-150 125h114q122 -124 171 -190h5q-45 59 -84 128l-35 62h90q29 -93 36 -131h4q-9 27 -9 83z" />
    <glyph glyph-name="uni09480902" horiz-adv-x="0" 
d="M-47 755h84v-95h-84v95zM-373 819h114l42 -48q73 -81 110 -142h4q-16 30 -34 73l-49 117h90l41 -201h-87q-35 20 -96 76z" />
    <glyph glyph-name="uni09480930094D0902" horiz-adv-x="0" 
d="M-27 739h71v-74h-71v74zM-92 688q0 4 -3 24q-7 45 -7 75t18.5 47t54.5 17h43v-70h-31q-20 0 -28 -7.5t-8 -27.5v-128h-87q-23 12 -102 76l-151 125h114q117 -119 172 -190h4q-49 66 -84 128l-35 62h91q32 -109 36 -131h3z" />
    <glyph glyph-name="uni094A0902" horiz-adv-x="195" 
d="M151 821h84v-95h-84v95zM142 678v-52h72v-70h-72v-556h-89v556h-72v70h71v31q0 20 -6 26t-26 6h-79q-82 0 -82 82v50h90v-29q0 -20 6 -26t27 -6h78q82 0 82 -82z" />
    <glyph glyph-name="uni094B0930094D" horiz-adv-x="195" 
d="M214 626v-70h-72v-556h-89v556h-72v70h64q-45 39 -97 108l-61 85h106l41 -58q30 -41 47 -90h2q-11 50 -11 98q0 82 88 82h49v-70h-35q-20 0 -26 -6t-6 -26v-123h72z" />
    <glyph glyph-name="uni094B0902" horiz-adv-x="195" 
d="M214 626v-70h-72v-556h-89v556h-72v70h64q-32 32 -84 102l-66 91h108l135 -193h76zM176 811v-95h-84v95h84z" />
    <glyph glyph-name="uni094B0930094D0902" horiz-adv-x="195" 
d="M165 740h71v-74h-71v74zM143 749v-123h71v-70h-72v-556h-89v556h-72v70h65q-45 39 -97 108l-61 85h106l41 -58q30 -41 47 -90h2q-11 50 -11 98q0 82 88 82h49v-70h-35q-20 0 -26 -6t-6 -26z" />
    <glyph glyph-name="uni094C0930094D" horiz-adv-x="195" 
d="M214 626v-70h-72v-556h-89v556h-72v70h60q-30 19 -89 68l-150 125h114q122 -124 171 -190h5q-45 59 -84 128l-35 62h90q29 -93 36 -131h4q-9 27 -9 83q0 29 18 46t53 17h44v-70h-31q-21 0 -28.5 -7.5t-7.5 -27.5v-103h72z" />
    <glyph glyph-name="uni094C0902" horiz-adv-x="195" 
d="M152 755h84v-95h-84v95zM214 626v-70h-72v-556h-89v556h-72v70h63q-41 30 -83 68l-135 125h114l42 -48q73 -81 110 -142h4q-16 30 -34 73l-49 117h90l39 -193h72z" />
    <glyph glyph-name="uni094C0930094D0902" horiz-adv-x="195" 
d="M168 739h71v-74h-71v74zM142 746v-120h72v-70h-72v-556h-89v556h-72v70h60q-32 22 -88 68l-151 125h114q117 -119 172 -190h4q-49 66 -84 128l-35 62h91q32 -109 36 -131h3q0 4 -3 24q-7 45 -7 75t18.5 47t54.5 17h43v-70h-31q-20 0 -28 -7.5t-8 -27.5z" />
    <glyph glyph-name="uni0915094D0937" horiz-adv-x="591" 
d="M611 626v-70h-72v-556h-91v294h-299q-18 0 -24 -5.5t-6 -24.5v-103q0 -18 6 -23.5t24 -5.5h75q20 0 28.5 8t8.5 28v48h91v-229h-91v89q-11 -14 -40 -14h-107q-85 0 -85 85v128q0 76 61 86q-10 10 -10 32v149q0 47 23 68t73 21h83q50 0 73 -21t23 -68v-154q0 -15 -8 -25
h101v263h163zM265 392v139q0 19 -6 24.5t-24 5.5h-35q-18 0 -24 -5.5t-6 -24.5v-139q0 -18 6 -23.5t24 -5.5h35q18 0 24 5.5t6 23.5z" />
    <glyph glyph-name="uni0915094D0937094D" horiz-adv-x="448" 
d="M481 294h-332q-18 0 -24 -5.5t-6 -24.5v-103q0 -18 6 -23.5t24 -5.5h75q20 0 28.5 8t8.5 28v48h91v-229h-91v89q-11 -14 -40 -14h-107q-85 0 -85 85v128q0 76 61 86q-10 10 -10 32v149q0 47 23 68t73 21h83q50 0 73 -21t23 -68v-154q0 -15 -8 -25h134v-69zM170 531v-139
q0 -18 6 -23.5t24 -5.5h35q18 0 24 5.5t6 23.5v139q0 19 -6 24.5t-24 5.5h-35q-18 0 -24 -5.5t-6 -24.5z" />
    <glyph glyph-name="uni0915094D0937094D092E" horiz-adv-x="982" 
d="M1001 626v-70h-71v-556h-91v362h-105v-171q0 -47 -23 -68t-73 -21h-89q-50 0 -73 21t-23 68v103h-304q-18 0 -24 -5.5t-6 -24.5v-103q0 -18 6 -23.5t24 -5.5h75q20 0 28.5 8t8.5 28v48h91v-229h-91v89q-11 -14 -40 -14h-107q-85 0 -85 85v128q0 76 61 86q-10 10 -10 32
v149q0 47 23 68t73 21h83q50 0 73 -21t23 -68v-154q0 -15 -8 -25h107q7 69 91 69h99v124h-245v70h602zM265 392v139q0 19 -6 24.5t-24 5.5h-35q-18 0 -24 -5.5t-6 -24.5v-139q0 -18 6 -23.5t24 -5.5h35q18 0 24 5.5t6 23.5zM644 202v160h-75q-18 0 -24 -5.5t-6 -23.5v-131
q0 -19 6 -24.5t24 -5.5h45q18 0 24 5.5t6 24.5zM839 432v124h-105v-124h105z" />
    <glyph glyph-name="uni0915094D0937094D092E094D" horiz-adv-x="825" 
d="M881 556h-142v-124h142v-70h-142v-171q0 -47 -23 -68t-73 -21h-89q-50 0 -73 21t-23 68v103h-309q-18 0 -24 -5.5t-6 -24.5v-103q0 -18 6 -23.5t24 -5.5h75q20 0 28.5 8t8.5 28v48h91v-229h-91v89q-11 -14 -40 -14h-107q-85 0 -85 85v128q0 76 61 86q-10 10 -10 32v149
q0 47 23 68t73 21h83q50 0 73 -21t23 -68v-154q0 -15 -8 -25h112q7 69 91 69h99v124h-247v70h479v-70zM265 392v139q0 19 -6 24.5t-24 5.5h-35q-18 0 -24 -5.5t-6 -24.5v-139q0 -18 6 -23.5t24 -5.5h35q18 0 24 5.5t6 23.5zM649 202v160h-75q-18 0 -24 -5.5t-6 -23.5v-131
q0 -19 6 -24.5t24 -5.5h45q18 0 24 5.5t6 24.5z" />
    <glyph glyph-name="uni0915094D0937094D092E094D092F" horiz-adv-x="1240" 
d="M1260 626v-70h-72v-556h-90v89q-11 -11 -36 -11h-160q-96 0 -96 89v192h-86v-192q0 -46 -23.5 -67.5t-73.5 -21.5h-74q-50 0 -73 21.5t-23 67.5v127h-304q-18 0 -24 -5.5t-6 -24.5v-103q0 -18 6 -23.5t24 -5.5h75q20 0 28.5 8t8.5 28v48h91v-229h-91v89q-11 -14 -40 -14
h-107q-85 0 -85 85v128q0 76 61 86q-10 10 -10 32v149q0 47 23 68t73 21h83q50 0 73 -21t23 -68v-154q0 -15 -8 -25h107q9 66 91 66h84v127h-230v70h861zM265 392v139q0 19 -6 24.5t-24 5.5h-35q-18 0 -24 -5.5t-6 -24.5v-139q0 -18 6 -23.5t24 -5.5h35q18 0 24 5.5t6 23.5z
M629 178v181h-57q-17 0 -23 -5.5t-6 -23.5v-152q0 -19 6 -24.5t24 -5.5h27q18 0 23.5 6t5.5 24zM720 429h176q17 0 23 5.5t6 23.5v65q0 22 -7 27.5t-37 5.5h-161v-127zM1098 182v374h-94q9 -11 9 -31v-79q0 -87 -90 -87h-27v-181q0 -19 6 -24.5t24 -5.5h138q20 0 27 7t7 27z
" />
    <glyph glyph-name="uni0915094D0937094D092F" horiz-adv-x="884" 
d="M904 626v-70h-71v-556h-91v89q-11 -11 -35 -11h-160q-97 0 -97 89v141h-301q-18 0 -24 -7t-6 -32v-108q0 -18 6 -23.5t24 -5.5h75q20 0 28.5 8t8.5 28v48h91v-229h-91v89q-11 -14 -40 -14h-107q-85 0 -85 85v134q0 83 62 93q-11 11 -11 33v135q0 47 23 68t73 21h83
q50 0 73 -21t23 -68v-140q0 -16 -8 -26h193q18 0 23.5 5.5t5.5 23.5v118q0 22 -7 27.5t-36 5.5h-103v70h481zM265 406v125q0 19 -6 24.5t-24 5.5h-35q-18 0 -24 -5.5t-6 -24.5v-125q0 -18 6 -24t24 -6h35q18 0 24 5.5t6 24.5zM742 182v374h-94q10 -10 10 -31v-132
q0 -87 -91 -87h-26v-128q0 -19 5.5 -24.5t23.5 -5.5h138q20 0 27 7t7 27z" />
    <glyph glyph-name="uni0915094D0937094D0935" horiz-adv-x="785" 
d="M801 626v-70h-71v-556h-91v88q-11 -10 -36 -10h-63q-90 0 -90 89v127h-301q-18 0 -24 -5.5t-6 -24.5v-103q0 -18 6 -23.5t24 -5.5h75q20 0 28.5 8t8.5 28v48h91v-229h-91v89q-11 -14 -40 -14h-107q-85 0 -85 85v128q0 76 61 86q-10 10 -10 32v149q0 47 23 68t73 21h83
q50 0 73 -21t23 -68v-154q0 -15 -8 -25h103v34q0 44 22 64.5t70 20.5h57v-68h-29q-18 0 -23.5 -5.5t-5.5 -23.5v-207q0 -19 5.5 -24.5t23.5 -5.5h38q17 0 24 7t7 25v376h-215v70h377zM265 392v139q0 19 -6 24.5t-24 5.5h-35q-18 0 -24 -5.5t-6 -24.5v-139q0 -18 6 -23.5
t24 -5.5h35q18 0 24 5.5t6 23.5z" />
    <glyph glyph-name="uni091C094D091E" horiz-adv-x="539" 
d="M559 626v-70h-73v-556h-90v406h-91q8 -8 8 -26v-233q0 -44 -22 -64.5t-70 -20.5h-84v-75h-91v221h91v-78h57q17 0 23 5.5t6 23.5v218q0 18 -6 23.5t-23 5.5h-126v70h328v80h-416v70h579z" />
    <glyph glyph-name="uni091C094D091E094D" horiz-adv-x="344" 
d="M-20 626h458v-70h-458v70zM68 406v70h370v-70h-133q8 -8 8 -26v-233q0 -44 -22 -64.5t-70 -20.5h-84v-75h-91v221h91v-78h57q17 0 23 5.5t6 23.5v218q0 18 -6 23.5t-23 5.5h-126z" />
    <glyph glyph-name="uni091C094D091E094D092F" horiz-adv-x="828" 
d="M848 626v-70h-72v-556h-90v89q-11 -11 -35 -11h-160q-97 0 -97 89v183h-88q7 -9 7 -25v-178q0 -44 -22 -64.5t-70 -20.5h-84v-75h-91v221h91v-78h57q17 0 23 5.5t6 23.5v163q0 17 -6 22.5t-23 5.5h-126v71h416q17 0 23 5.5t6 22.5v74q0 22 -7 27.5t-36 5.5h-490v70h868z
M686 182v374h-94q10 -10 10 -31v-88q0 -87 -91 -87h-26v-172q0 -19 5.5 -24.5t23.5 -5.5h138q20 0 27 7t7 27z" />
    <glyph glyph-name="uni0915094D0928" horiz-adv-x="908" 
d="M928 626v-70h-72v-556h-90v382h-82v-215q0 -46 -23 -67.5t-73 -21.5h-74q-50 0 -73 21.5t-23 67.5v200q0 10 1 15h-68q-18 0 -25 -6.5t-7 -25.5v-350h-90v89q-11 -11 -37 -11h-62q-90 0 -90 89v230q0 44 22 64.5t70 20.5h56v-68h-29q-17 0 -23 -5.5t-6 -23.5v-207
q0 -18 6 -24t23 -6h38q18 0 25 7t7 25v376h-249v70h948zM594 178v204h-57q-18 0 -23.5 -5.5t-5.5 -23.5v-175q0 -19 6 -24.5t24 -5.5h26q18 0 24 5.5t6 24.5zM766 452v104h-447v-114q11 10 36 10h411z" />
    <glyph glyph-name="uni0916094D0928" horiz-adv-x="1009" 
d="M1029 626v-70h-72v-556h-90v412h-82v-245q0 -46 -23.5 -67.5t-73.5 -21.5h-74q-72 0 -90 47q-12 -15 -42 -15h-58q-90 0 -90 89v198q0 44 22 64.5t70 20.5h60v-68h-36q-18 0 -23.5 -5.5t-5.5 -23.5v-175q0 -18 5.5 -23.5t23.5 -5.5h31q20 0 28.5 8t8.5 28v180
q0 44 22 64.5t70 20.5h257v74h-585q8 -8 8 -26v-201q0 -86 -92 -86h-61v-139q0 -20 5.5 -25.5t25.5 -5.5h221v-73h-242q-52 0 -76.5 21t-24.5 66v384h91v-158h31q20 0 26 6.5t6 25.5v179q0 20 -6 26t-26 6h-188v70h1049zM694 178v234h-56q-18 0 -24 -5.5t-6 -23.5v-205
q0 -19 6 -24.5t24 -5.5h27q17 0 23 6t6 24z" />
    <glyph glyph-name="uni0917094D0928" horiz-adv-x="894" 
d="M915 626v-70h-72v-556h-90v412h-82v-245q0 -46 -23.5 -67.5t-73.5 -21.5h-74q-50 0 -73 21.5t-23 67.5v230q0 44 22 64.5t70 20.5h257v74h-437v-389q0 -46 -23 -67.5t-73 -21.5h-90q-50 0 -73 21.5t-23 67.5v182q0 87 100 87h92v120h-246v70h935zM153 148h43q18 0 24 5.5
t6 24.5v187h-71q-19 0 -25 -5.5t-6 -25.5v-156q0 -18 6 -24t23 -6zM580 178v234h-57q-17 0 -23 -5.5t-6 -23.5v-205q0 -19 6 -24.5t24 -5.5h27q17 0 23 6t6 24z" />
    <glyph glyph-name="uni0918094D0928" horiz-adv-x="782" 
d="M796 626v-70h-71v-556h-91v412h-82v-245q0 -46 -23 -67.5t-73 -21.5h-74q-50 0 -71 20q-17 -20 -57 -20h-111q-97 0 -97 89v134q0 45 39 48v3q-39 3 -39 49v129q0 18 8 26h-74v70h816zM462 178v234h-57q-17 0 -23 -5.5t-6 -23.5v-205q0 -19 6 -24.5t24 -5.5h26
q18 0 24 5.5t6 24.5zM634 482v74h-466q-19 0 -25 -6t-6 -26v-108q0 -18 5.5 -23.5t23.5 -5.5h61v-71h-61q-18 0 -23.5 -5.5t-5.5 -23.5v-109q0 -19 5.5 -24.5t23.5 -5.5h86q19 0 26.5 7.5t7.5 26.5v215q0 44 21.5 64.5t69.5 20.5h257z" />
    <glyph glyph-name="uni091A094D0928" horiz-adv-x="759" 
d="M779 626v-70h-71v-556h-91v412h-82v-245q0 -46 -23 -67.5t-73 -21.5h-74q-53 0 -77 25q-15 -25 -61 -25h-74q-90 0 -90 89v213q0 23 11 32h-73v70h219v-70h-38q-18 0 -23.5 -6t-5.5 -24v-204q0 -18 5.5 -24t23.5 -6h53q19 0 26.5 7.5t7.5 26.5v215q0 44 22 64.5t70 20.5
h256v74h-637v70h799zM445 178v234h-57q-17 0 -23 -5.5t-6 -23.5v-205q0 -19 6 -24.5t24 -5.5h26q18 0 24 5.5t6 24.5z" />
    <glyph glyph-name="uni091B094D0928" horiz-adv-x="543" 
d="M563 556h-144v-75q78 -5 78 -84v-308q0 -89 -97 -89h-6v-231h-79v103h-68q-17 0 -23 -5.5t-6 -23.5v-29h-80v41q0 85 87 85h90v60h-168q-96 0 -96 89v171q0 43 39 48v2q-39 5 -39 49v171q0 16 7 26h-78v70h583v-70zM335 556h-146l7 -1q-37 2 -46 -2.5t-9 -28.5v-149
q0 -19 5.5 -24.5t23.5 -5.5h36v-70h-36q-18 0 -23.5 -5.5t-5.5 -24.5v-145q0 -18 5.5 -23.5t23.5 -5.5h211q18 0 23.5 5.5t5.5 23.5v287q0 18 -5.5 23.5t-23.5 5.5h-19q-18 0 -23.5 -5.5t-5.5 -23.5v-112q0 -18 5.5 -23.5t23.5 -5.5h18v-66h-37q-88 0 -88 85v132q0 79 80 85
v74z" />
    <glyph glyph-name="uni091C094D0928" horiz-adv-x="895" 
d="M915 626v-70h-71v-556h-91v412h-82v-245q0 -46 -23 -67.5t-73 -21.5h-74q-50 0 -73 21.5t-23 67.5v230q0 10 1 15h-92v-245q0 -46 -23 -67.5t-73 -21.5h-78q-50 0 -73 21.5t-23 67.5v315h90v-304q0 -19 6 -24.5t24 -5.5h31q17 0 23 6t6 24v304h529v74h-773v70h935z
M581 178v234h-57q-18 0 -23.5 -5.5t-5.5 -23.5v-205q0 -19 6 -24.5t24 -5.5h26q18 0 24 5.5t6 24.5z" />
    <glyph glyph-name="uni091D094D0928" horiz-adv-x="905" 
d="M925 626v-70h-72v-556h-90v412h-82v-245q0 -46 -23.5 -67.5t-73.5 -21.5h-74q-50 0 -73 21.5t-23 67.5v85h-88q2 -14 2 -21v-84q0 -44 -22 -64.5t-70 -20.5h-102v-75h-90v198h90v-55h74q18 0 24 5.5t6 23.5v64q0 18 -6 23.5t-24 5.5h-74q-48 0 -69.5 20.5t-21.5 64.5v60
q0 44 21.5 64.5t69.5 20.5h93v74h-247v70h945zM590 178v234h-57q-17 0 -23 -5.5t-6 -23.5v-205q0 -19 6 -24.5t24 -5.5h27q17 0 23 6t6 24zM763 482v74h-445v-142h-156q-18 0 -23.5 -5.5t-5.5 -23.5v-36q0 -18 5.5 -23.5t23.5 -5.5h252v77q0 44 22 64.5t70 20.5h257z" />
    <glyph glyph-name="uni091F094D0928" horiz-adv-x="366" 
d="M317 412h-145q-18 0 -24 -5.5t-6 -24.5v-282q0 -19 6 -24.5t24 -5.5h30q18 0 24 5.5t6 24.5v103h90v-114q0 -45 -22 -67v-253h-80v103h-37q-18 0 -23.5 -5.5t-5.5 -23.5v-29h-80v41q0 85 87 85h59v60h-72q-50 0 -73 21.5t-23 67.5v308q0 44 22 64.5t70 20.5h83v74h-247
v70h406v-70h-69v-144z" />
    <glyph glyph-name="uni0920094D0928" horiz-adv-x="393" 
d="M413 556h-169v-74h7q50 0 73 -21t23 -68v-304q0 -61 -42 -80v-240h-80v103h-35q-18 0 -23.5 -5.5t-5.5 -23.5v-29h-80v41q0 85 87 85h57v60h-77q-50 0 -73 21.5t-23 67.5v304q0 47 23 68t73 21h6v74h-174v70h433v-70zM257 100v282q0 19 -6 24.5t-24 5.5h-55
q-18 0 -24 -5.5t-6 -24.5v-282q0 -19 6 -24.5t24 -5.5h55q18 0 24 5.5t6 24.5z" />
    <glyph glyph-name="uni0921094D0928" horiz-adv-x="376" 
d="M307 414h-133q-18 0 -23.5 -5.5t-5.5 -23.5v-60q0 -17 5.5 -22.5t23.5 -5.5h54q48 0 70 -21t22 -64v-127q0 -50 -29 -70v-246h-80v103h-37q-18 0 -24 -5.5t-6 -23.5v-29h-80v41q0 85 87 85h60v60h-75q-48 0 -70 21t-22 64v79h90v-67q0 -18 5.5 -23.5t22.5 -5.5h39
q17 0 23 5.5t6 23.5v103q0 17 -6 22.5t-23 5.5h-55q-47 0 -69 21t-22 64v84q0 44 21.5 64.5t69.5 20.5h71v74h-237v70h416v-70h-89v-142z" />
    <glyph glyph-name="uni0924094D0928" horiz-adv-x="747" 
d="M767 626v-70h-72v-556h-90v412h-82v-245q0 -46 -23 -67.5t-73 -21.5h-75q-50 0 -73 21.5t-23 67.5v230q0 10 1 15h-94q-17 0 -23 -5.5t-6 -23.5v-282q0 -17 6 -22.5t23 -5.5h30v-73h-57q-48 0 -70 21t-22 64v312q0 44 22 64.5t70 20.5h469v74h-625v70h787zM433 178v234
h-57q-18 0 -24 -5.5t-6 -23.5v-205q0 -19 6 -24.5t24 -5.5h27q18 0 24 6t6 24z" />
    <glyph glyph-name="uni0925094D0928" horiz-adv-x="825" 
d="M845 626v-70h-72v-556h-90v412h-82v-245q0 -46 -23 -67.5t-73 -21.5h-74q-49 0 -73 21q-8 -21 -42 -21h-173q-96 0 -96 89v196h102q18 0 24 5.5t6 22.5v141q0 18 -6 23.5t-24 5.5h-5q-18 0 -24 -5.5t-6 -23.5v-43h-60v58q0 84 88 84h37q90 0 90 -84v-168q0 -87 -92 -87
h-40v-114q0 -18 5.5 -24t23.5 -6h134q20 0 27 7t7 27v215q0 44 22 64.5t70 20.5h257v74h-349v70h511zM511 178v234h-57q-18 0 -23.5 -5.5t-5.5 -23.5v-205q0 -18 5.5 -24t23.5 -6h27q18 0 24 5.5t6 24.5z" />
    <glyph glyph-name="uni0926094D0928" horiz-adv-x="374" 
d="M322 412h-153q-18 0 -24 -5.5t-6 -24.5v-204q0 -18 5.5 -24t23.5 -6h42q17 0 24 7t7 25v91h86v-425h-86v104h-48q-18 0 -24 -5.5t-6 -24.5v-29h-79v41q0 85 86 85h71v71q-11 -10 -36 -10h-60q-50 0 -73 21.5t-23 67.5v230q0 44 22 64.5t70 20.5h91v74h-255v70h417v-70
h-72v-144z" />
    <glyph glyph-name="uni0927094D0928" horiz-adv-x="828" 
d="M848 626v-70h-72v-556h-90v412h-82v-245q0 -46 -23 -67.5t-73 -21.5h-74q-49 0 -73 21q-8 -21 -42 -21h-162q-90 0 -90 85v131q0 43 39 48v2q-39 5 -39 49v154q0 84 90 84h39q90 0 90 -84v-58h-60v43q0 18 -6 23.5t-24 5.5h-9q-18 0 -23.5 -5.5t-5.5 -23.5v-123
q0 -19 5.5 -24.5t23.5 -5.5h68v-70h-68q-18 0 -23.5 -5.5t-5.5 -24.5v-101q0 -19 5.5 -24.5t23.5 -5.5h116q19 0 26.5 7t7.5 27v215q0 44 22 64.5t70 20.5h257v74h-349v70h511zM514 178v234h-57q-18 0 -23.5 -5.5t-5.5 -23.5v-205q0 -18 6 -24t23 -6h27q18 0 24 5.5t6 24.5z
" />
    <glyph glyph-name="uni0928094D0928" horiz-adv-x="877" 
d="M897 626v-70h-71v-556h-91v412h-82v-245q0 -46 -23 -67.5t-73 -21.5h-74q-50 0 -73 21.5t-23 67.5v230q0 10 1 15h-87v-245q0 -46 -23.5 -67.5t-73.5 -21.5h-74q-50 0 -73 21.5t-23 67.5v230q0 44 22 64.5t70 20.5h609v74h-755v70h917zM210 178v234h-57q-17 0 -23 -5.5
t-6 -23.5v-205q0 -19 6 -24.5t24 -5.5h27q17 0 23 6t6 24zM563 178v234h-57q-17 0 -23 -5.5t-6 -23.5v-205q0 -19 6 -24.5t24 -5.5h26q18 0 24 5.5t6 24.5z" />
    <glyph glyph-name="uni092A094D0928" horiz-adv-x="732" 
d="M752 626v-70h-72v-556h-91v412h-82v-245q0 -46 -23 -67.5t-73 -21.5h-74q-48 0 -72 21q-10 -21 -42 -21h-81q-90 0 -90 89v389h-72v70h772zM417 178v234h-57q-17 0 -23 -5.5t-6 -23.5v-205q0 -19 6 -24.5t24 -5.5h26q18 0 24 5.5t6 24.5zM589 482v74h-447v-378
q0 -18 6 -24t23 -6h36q19 0 26.5 7t7.5 27v215q0 44 22 64.5t70 20.5h256z" />
    <glyph glyph-name="uni092B094D0928" horiz-adv-x="915" 
d="M935 626v-70h-72v-556h-90v412h-82v-245q0 -46 -23 -67.5t-73 -21.5h-75q-50 0 -73 21.5t-23 67.5v230q0 10 1 15h-68q-18 0 -25 -6.5t-7 -25.5v-380h-90v89q-11 -11 -36 -11h-63q-90 0 -90 89v389h-66v70h955zM166 148h38q17 0 24 7t7 25v376h-98v-378q0 -19 5.5 -24.5
t23.5 -5.5zM601 178v234h-57q-18 0 -24 -5.5t-6 -23.5v-205q0 -19 6 -24.5t24 -5.5h27q18 0 24 6t6 24zM773 482v74h-448v-85q11 11 37 11h411z" />
    <glyph glyph-name="uni092C094D0928" horiz-adv-x="777" 
d="M797 626v-70h-72v-556h-90v412h-82v-245q0 -46 -23 -67.5t-73 -21.5h-74q-49 0 -73 21q-13 -21 -54 -21h-116q-90 0 -90 89v230q0 44 22 64.5t70 20.5h104v-68h-75l121 -217q-6 25 -6 75v125q0 44 22 64.5t70 20.5h257v74h-655v70h817zM169 148h89q8 0 12 1l-77 132
q-12 23 -31.5 60.5t-21.5 40.5v-204q0 -18 6 -24t23 -6zM463 178v234h-57q-18 0 -23.5 -5.5t-5.5 -23.5v-205q0 -18 5.5 -24t23.5 -6h27q18 0 24 5.5t6 24.5z" />
    <glyph glyph-name="uni092D094D0928" horiz-adv-x="899" 
d="M919 626v-70h-72v-556h-90v412h-82v-245q0 -46 -23 -67.5t-73 -21.5h-74q-50 0 -73 21.5t-23 67.5v168h-84v-168q0 -46 -23 -67.5t-73 -21.5h-89q-50 0 -73 21.5t-23 67.5v153q0 43 22 64t70 21h99v123q0 18 -6 23.5t-24 5.5h-33q-18 0 -24 -5.5t-6 -23.5v-49h-90v61
q0 87 92 87h89q92 0 92 -87v-135h84q4 77 91 77h257v74h-348v70h510zM235 178v157h-72q-17 0 -23 -5.5t-6 -23.5v-128q0 -19 6 -24.5t24 -5.5h41q18 0 24 5.5t6 24.5zM585 178v234h-57q-18 0 -23.5 -5.5t-5.5 -23.5v-205q0 -19 6 -24.5t24 -5.5h26q18 0 24 5.5t6 24.5z" />
    <glyph glyph-name="uni092E094D0928" horiz-adv-x="906" 
d="M926 626v-70h-72v-556h-90v412h-82v-245q0 -46 -23.5 -67.5t-73.5 -21.5h-74q-50 0 -73 21.5t-23 67.5v195h-98v-171q0 -47 -23 -68t-73 -21h-89q-50 0 -73 21t-23 68v156q0 43 22 64t70 21h99v124h-247v70h946zM227 202v160h-75q-18 0 -24 -5.5t-6 -23.5v-131
q0 -19 6 -24.5t24 -5.5h45q18 0 24 5.5t6 24.5zM591 178v234h-57q-17 0 -23 -5.5t-6 -23.5v-205q0 -19 6 -24.5t24 -5.5h27q18 0 23.5 6t5.5 24zM764 482v74h-447v-124h102q15 50 88 50h257z" />
    <glyph glyph-name="uni092F094D0928" horiz-adv-x="819" 
d="M839 626v-70h-72v-556h-90v412h-82v-245q0 -46 -23.5 -67.5t-73.5 -21.5h-74q-48 0 -72 21q-10 -21 -42 -21h-178q-96 0 -96 89v211h90q17 0 23 5.5t6 22.5v117q0 22 -7 27.5t-37 5.5h-131v70h859zM504 178v234h-57q-17 0 -23 -5.5t-6 -23.5v-205q0 -19 6 -24.5t24 -5.5
h27q17 0 23 6t6 24zM677 482v74h-443q9 -10 9 -31v-131q0 -87 -90 -87h-27v-129q0 -19 6 -24.5t24 -5.5h138q20 0 27 7t7 27v215q0 44 22 64.5t70 20.5h257z" />
    <glyph glyph-name="uni0935094D0928" horiz-adv-x="726" 
d="M746 626v-70h-72v-556h-90v412h-82v-245q0 -46 -23 -67.5t-73 -21.5h-75q-53 0 -77 25q-15 -25 -60 -25h-58q-90 0 -90 89v230q0 44 22 64.5t70 20.5h57v-70h-29q-18 0 -23.5 -5.5t-5.5 -23.5v-205q0 -19 5.5 -24.5t23.5 -5.5h38q17 0 24 7t7 24v218q0 44 22 64.5
t70 20.5h257v74h-604v70h766zM412 178v234h-57q-18 0 -24 -5.5t-6 -23.5v-205q0 -19 6 -24.5t24 -5.5h27q18 0 24 5.5t6 24.5z" />
    <glyph glyph-name="uni0936094D0928" horiz-adv-x="902" 
d="M922 626v-70h-72v-556h-90v412h-82v-245q0 -46 -23.5 -67.5t-73.5 -21.5h-74q-50 0 -73 21.5t-23 67.5v230q0 44 22 64.5t70 20.5h257v74h-403v70h565zM587 178v234h-57q-17 0 -23 -5.5t-6 -23.5v-205q0 -19 6 -24.5t24 -5.5h27q18 0 23.5 6t5.5 24zM142 628h91
q92 0 92 -87v-194q0 -86 -100 -86h-87v-164q0 -18 6 -23.5t24 -5.5h37q17 0 22.5 5.5t5.5 23.5v96h90v-108q0 -43 -22 -64t-69 -21h-92q-48 0 -70 21t-22 64v296h90v-50h65q19 0 25.5 6.5t6.5 25.5v166q0 18 -6 23.5t-24 5.5h-37q-17 0 -22.5 -5.5t-5.5 -23.5v-77h-90v89
q0 87 92 87z" />
    <glyph glyph-name="uni0938094D0928" horiz-adv-x="905" 
d="M925 626v-70h-72v-556h-90v412h-82v-245q0 -46 -23.5 -67.5t-73.5 -21.5h-74q-50 0 -73 21.5t-23 67.5v111h-280v-181q0 -18 6 -23.5t23 -5.5h38q17 0 22.5 5.5t5.5 23.5v113h90v-125q0 -43 -22 -64t-70 -21h-91q-48 0 -70 21t-22 64v366h90v-103h65q19 0 25.5 6t6.5 26
v144q0 20 -6.5 26t-25.5 6h-219v70h945zM590 178v234h-57q-17 0 -23 -5.5t-6 -23.5v-205q0 -19 6 -24.5t24 -5.5h27q17 0 23 6t6 24zM763 482v74h-450q8 -8 8 -26v-129q0 -38 -15 -53h108v49q0 44 22 64.5t70 20.5h257z" />
    <glyph glyph-name="uni0939094D0928" horiz-adv-x="424" 
d="M334 414h-163q-17 0 -23 -5.5t-6 -22.5v-17q0 -17 6 -22.5t23 -5.5h142q83 0 83 -80v-150h-66v67h-50q-18 0 -23.5 -5.5t-5.5 -23.5v-20h-71v27q0 41 19 59.5t60 18.5h71v16q0 18 -6.5 24t-24.5 6h-128q-17 0 -23 -6t-6 -24v-154q0 -18 6 -24t23 -6h169v-66h-192
q-96 0 -96 89v164q0 45 39 48v3q-39 3 -39 49v44q0 44 22 64.5t70 20.5h100v74h-264v70h464v-70h-110v-142z" />
    <glyph glyph-name="uni0915094D0930" horiz-adv-x="548" 
d="M568 556h-249v-84q11 10 36 10h63q90 0 90 -89v-202q0 -43 -22 -64t-70 -21h-57v68h29q18 0 24 5.5t6 23.5v179q0 19 -6 24.5t-24 5.5h-37q-18 0 -25 -6.5t-7 -25.5v-380h-90v114l-108 -166h-97l105 158q-89 0 -89 89v202q0 44 22 64.5t70 20.5h56v-68h-29
q-17 0 -23 -5.5t-6 -23.5v-179q0 -18 6 -24t23 -6h38q18 0 25 7t7 25v348h-249v70h588v-70z" />
    <glyph glyph-name="uni0916094D0930" horiz-adv-x="657" 
d="M677 626v-70h-72v-556h-87v124l-121 -176h-96l112 160q-79 6 -79 89v189q0 44 22 64.5t70 20.5h60v-68h-36q-18 0 -23.5 -5.5t-5.5 -23.5v-166q0 -18 5.5 -23.5t23.5 -5.5h31q20 0 28.5 8t8.5 27v342h-236q8 -8 8 -26v-201q0 -86 -92 -86h-61v-139q0 -20 5.5 -25.5
t25.5 -5.5h132v-73h-153q-52 0 -76.5 21t-24.5 66v384h91v-158h31q20 0 26 6.5t6 25.5v179q0 20 -6 26t-26 6h-188v70h697z" />
    <glyph glyph-name="uni0917094D0930" horiz-adv-x="557" 
d="M577 626v-70h-72v-556h-90v135l-176 -191h-100l276 298v314h-99v-317q0 -46 -23 -67.5t-73 -21.5h-90q-50 0 -73 21.5t-23 67.5v157q0 44 24 65t76 21h92v74h-246v70h597zM153 220h43q18 0 24 5.5t6 24.5v162h-71q-19 0 -25 -6t-6 -25v-131q0 -18 6 -24t23 -6z" />
    <glyph glyph-name="uni0918094D0930" horiz-adv-x="441" 
d="M461 626v-70h-72v-556h-90v114l-107 -166h-98l112 169l-16 -11h-58q-86 0 -86 85v123q0 43 39 48v2q-39 5 -39 49v113q0 21 11 30h-77v70h481zM299 208v348h-118q-29 0 -36.5 -5t-7.5 -27v-95q0 -19 5.5 -24.5t23.5 -5.5h61v-70h-61q-18 0 -23.5 -5.5t-5.5 -23.5v-94
q0 -19 5.5 -24.5t23.5 -5.5h101q18 0 25 7t7 25z" />
    <glyph glyph-name="uni0919094D0930" horiz-adv-x="394" 
d="M-20 626h434v-70h-107v-142h-133q-18 0 -23.5 -5.5t-5.5 -23.5v-60q0 -17 5.5 -22.5t23.5 -5.5h54q48 0 70 -21t22 -64v-127q0 -73 -65 -83l79 -143h-86l-62 124l-63 -124h-86l79 142q-72 7 -72 84v79h90v-67q0 -18 5.5 -23.5t22.5 -5.5h39q17 0 23 5.5t6 23.5v103
q0 17 -6 22.5t-23 5.5h-55q-47 0 -69 21t-22 64v84q0 44 21.5 64.5t69.5 20.5h71v74h-237v70zM307 303v95h83v-95h-83z" />
    <glyph glyph-name="uni091A094D0930" horiz-adv-x="414" 
d="M430 626v-70h-72v-556h-90v114l-108 -166h-97l105 158h-19q-86 0 -86 85v189q0 22 10 32h-72v70h219v-70h-25q-27 0 -34.5 -5t-7.5 -25v-176q0 -18 5.5 -24t23.5 -6h54q18 0 25 7t7 25v348h-288v70h450z" />
    <glyph glyph-name="uni091B094D0930" horiz-adv-x="543" 
d="M563 556h-144v-75q78 -5 78 -84v-308q0 -89 -97 -89h-53l78 -141h-86l-62 124l-63 -124h-86l79 141h-60q-96 0 -96 89v171q0 43 39 48v2q-39 5 -39 49v171q0 16 7 26h-78v70h583v-70zM335 556h-146l7 -1q-37 2 -46 -2.5t-9 -28.5v-149q0 -19 5.5 -24.5t23.5 -5.5h36v-70
h-36q-18 0 -23.5 -5.5t-5.5 -24.5v-145q0 -18 5.5 -23.5t23.5 -5.5h211q18 0 23.5 5.5t5.5 23.5v287q0 18 -5.5 23.5t-23.5 5.5h-19q-18 0 -23.5 -5.5t-5.5 -23.5v-112q0 -18 5.5 -23.5t23.5 -5.5h18v-66h-37q-88 0 -88 85v132q0 79 80 85v74z" />
    <glyph glyph-name="uni091C094D0930" horiz-adv-x="540" 
d="M560 626v-70h-72v-556h-90v97l-139 -149h-102l241 252v212h-84v-205q0 -46 -23 -67.5t-73 -21.5h-78q-50 0 -73 21.5t-23 67.5v275h90v-264q0 -19 6 -24.5t24 -5.5h31q17 0 23 6t6 24v264h174v74h-418v70h580z" />
    <glyph glyph-name="uni091D094D0930" horiz-adv-x="570" 
d="M590 626v-70h-72v-556h-90v94l-138 -146h-96l234 237v79h-101q1 -6 1 -19v-78q0 -42 -22 -62t-70 -20h-102v-85h-90v199h90v-49h74q18 0 24 5.5t6 22.5v58q0 18 -6 23t-24 5h-74q-47 0 -69 20t-22 62v58q0 42 22 62t69 20h93v70h-251v70h614zM428 330v226h-110v-135h-156
q-18 0 -23.5 -5.5t-5.5 -23.5v-34q0 -17 5.5 -22.5t23.5 -5.5h266z" />
    <glyph glyph-name="uni091E094D0930" horiz-adv-x="533" 
d="M553 626v-70h-72v-556h-90v135l-176 -191h-101l277 298v20h-97v-23q0 -46 -23 -67.5t-73 -21.5h-74q-50 0 -73 21.5t-23 67.5v29h90v-18q0 -19 6 -24.5t24 -5.5h27q17 0 23 6t6 24v133q0 18 -5.5 23.5t-23.5 5.5h-89v70h117q91 0 91 -87v-62h97v223h-411v70h573z" />
    <glyph glyph-name="uni091F094D0930" horiz-adv-x="366" 
d="M317 412h-145q-18 0 -24 -5.5t-6 -24.5v-282q0 -19 6 -24.5t24 -5.5h30q18 0 24 5.5t6 24.5v103h90v-114q0 -73 -61 -86l80 -144h-86l-62 124l-63 -124h-86l79 142q-71 10 -71 88v308q0 44 22 64.5t70 20.5h83v74h-247v70h406v-70h-69v-144z" />
    <glyph glyph-name="uni0920094D0930" horiz-adv-x="393" 
d="M413 556h-169v-74h7q50 0 73 -21t23 -68v-304q0 -81 -76 -88l78 -142h-86l-62 124l-63 -124h-86l79 142q-41 3 -60 24.5t-19 63.5v304q0 47 23 68t73 21h6v74h-174v70h433v-70zM257 100v282q0 19 -6 24.5t-24 5.5h-55q-18 0 -24 -5.5t-6 -24.5v-282q0 -19 6 -24.5
t24 -5.5h55q18 0 24 5.5t6 24.5z" />
    <glyph glyph-name="uni0921094D0930" horiz-adv-x="376" 
d="M307 414h-133q-18 0 -23.5 -5.5t-5.5 -23.5v-60q0 -17 5.5 -22.5t23.5 -5.5h54q48 0 70 -21t22 -64v-127q0 -73 -65 -83l79 -143h-86l-62 124l-63 -124h-86l79 142q-72 7 -72 84v79h90v-67q0 -18 5.5 -23.5t22.5 -5.5h39q17 0 23 5.5t6 23.5v103q0 17 -6 22.5t-23 5.5
h-55q-47 0 -69 21t-22 64v84q0 44 21.5 64.5t69.5 20.5h71v74h-237v70h416v-70h-89v-142z" />
    <glyph glyph-name="uni0922094D0930" horiz-adv-x="406" 
d="M317 412h-145q-18 0 -24 -5.5t-6 -24.5v-282q0 -19 6 -24.5t24 -5.5h65q17 0 23 6t6 24v88q0 18 -6 23.5t-23 5.5h-42v70h65q51 0 74 -21t23 -68v-109q0 -42 -19.5 -63.5t-61.5 -24.5l78 -142h-86l-62 124l-63 -124h-86l79 141q-44 3 -64 24.5t-20 64.5v308q0 44 22 64.5
t70 20.5h83v74h-247v70h446v-70h-109v-144z" />
    <glyph glyph-name="uni0923094D0930" horiz-adv-x="553" 
d="M573 626v-70h-72v-556h-90v135l-176 -191h-100l276 298v314h-97v-315q0 -46 -23 -67.5t-73 -21.5h-78q-50 0 -73 21.5t-23 67.5v315h-64v70h593zM224 252v304h-90v-304q0 -18 6 -23.5t24 -5.5h31q17 0 23 5.5t6 23.5z" />
    <glyph glyph-name="uni0924094D0930" horiz-adv-x="410" 
d="M430 626v-70h-72v-556h-89v198h-23l-135 -198h-102l165 242l-59 113q-16 31 -31 42.5t-45 11.5h-32v72h51q53 0 78 -14t46 -54l78 -146h9v289h-289v70h450z" />
    <glyph glyph-name="uni0925094D0930" horiz-adv-x="476" 
d="M496 626v-70h-71v-556h-91v114l-107 -166h-97l105 158h-102q-86 0 -86 85v172h102q18 0 24 5.5t6 22.5v141q0 18 -6 23.5t-24 5.5h-5q-18 0 -24 -5.5t-6 -23.5v-43h-60v58q0 84 88 84h37q90 0 90 -84v-168q0 -87 -92 -87h-40v-86q0 -18 5.5 -24t23.5 -6h137q17 0 24 7
t7 25v418h162z" />
    <glyph glyph-name="uni0926094D0930" horiz-adv-x="374" 
d="M322 412h-153q-18 0 -24 -5.5t-6 -24.5v-176q0 -18 5.5 -24t23.5 -6h37q18 0 25 7t7 25v63h90v-271h-90v114l-107 -166h-98l105 158h-2q-86 0 -86 85v206q0 44 22 64.5t70 20.5h91v74h-255v70h417v-70h-72v-144z" />
    <glyph glyph-name="uni0927094D0930" horiz-adv-x="478" 
d="M499 626v-70h-71v-556h-91v114l-107 -166h-97l112 169l-45 -11h-47q-86 0 -86 85v120q0 43 39 48v2q-39 5 -39 49v137q0 84 90 84h39q90 0 90 -84v-58h-60v43q0 18 -6 23.5t-24 5.5h-9q-18 0 -23.5 -5.5t-5.5 -23.5v-106q0 -19 5.5 -24.5t23.5 -5.5h68v-70h-68
q-18 0 -23.5 -5.5t-5.5 -24.5v-90q0 -19 5.5 -24.5t23.5 -5.5h119q17 0 24 7t7 25v418h162z" />
    <glyph glyph-name="uni0928094D0930" horiz-adv-x="529" 
d="M545 626v-70h-72v-556h-90v135l-176 -191h-101l277 298v170h-82v-159q0 -46 -23.5 -67.5t-73.5 -21.5h-74q-50 0 -73 21t-23 68v144q0 44 22 64.5t70 20.5h257v74h-403v70h565zM210 264v148h-57q-17 0 -23 -5.5t-6 -23.5v-119q0 -19 6 -24.5t24 -5.5h27q17 0 23 6t6 24z
" />
    <glyph glyph-name="uni092A094D0930" horiz-adv-x="383" 
d="M403 626v-70h-72v-556h-90v114l-107 -166h-98l105 158q-89 0 -89 89v361h-72v70h423zM241 208v348h-99v-350q0 -18 6 -24t23 -6h38q18 0 25 7t7 25z" />
    <glyph glyph-name="uni092B094D0930" horiz-adv-x="554" 
d="M574 556h-249v-85q11 11 37 11h62q90 0 90 -89v-230q0 -43 -22 -64t-69 -21h-57v68h29q18 0 23.5 5.5t5.5 23.5v207q0 19 -5.5 24.5t-23.5 5.5h-38q-18 0 -25 -6.5t-7 -25.5v-380h-90v114l-107 -166h-98l106 158h-4q-86 0 -86 85v365h-66v70h594v-70zM235 208v348h-98
v-350q0 -19 5.5 -24.5t23.5 -5.5h38q17 0 24 7t7 25z" />
    <glyph glyph-name="uni092C094D0930" horiz-adv-x="425" 
d="M445 626v-70h-72v-556h-91v112l-106 -164h-98l103 154h-45q-90 0 -90 89v206q0 44 22 64.5t70 20.5h104v-68h-75l69 -109l52 -88q-6 40 -6 129v210h-302v70h465zM165 172h77q12 0 19 3l-125 204v-177q0 -18 6 -24t23 -6z" />
    <glyph glyph-name="uni092D094D0930" horiz-adv-x="572" 
d="M592 626v-70h-71v-556h-91v135l-175 -191h-101l276 298v98h-105v-118q0 -46 -23 -67.5t-73 -21.5h-89q-50 0 -73 21.5t-23 67.5v104q0 43 22 64t70 21h99v117q0 18 -6 23.5t-24 5.5h-33q-18 0 -24 -5.5t-6 -23.5v-49h-90v61q0 87 92 87h89q92 0 92 -87v-129h105v215h162z
M235 233v107h-72q-17 0 -23 -5.5t-6 -22.5v-79q0 -18 6 -23.5t24 -5.5h41q18 0 24 5.5t6 23.5z" />
    <glyph glyph-name="uni092E094D0930" horiz-adv-x="562" 
d="M582 626v-70h-71v-556h-91v135l-175 -191h-101l276 298v123h-105v-143q0 -46 -23 -67.5t-73 -21.5h-89q-50 0 -73 21.5t-23 67.5v128q0 43 22 64t70 21h99v121h-245v70h602zM225 233v132h-75q-18 0 -24 -5.5t-6 -23.5v-103q0 -18 6 -23.5t24 -5.5h45q18 0 24 5.5t6 23.5z
M420 435v121h-105v-121h105z" />
    <glyph glyph-name="uni092F094D0930" horiz-adv-x="470" 
d="M490 626v-70h-72v-556h-90v114l-107 -166h-98l105 158h-106q-86 0 -86 85v187h90q17 0 23 5.5t6 22.5v117q0 22 -7 27.5t-37 5.5h-147v70h526zM328 208v348h-94q9 -10 9 -31v-131q0 -87 -90 -87h-27v-101q0 -19 6 -24.5t24 -5.5h140q18 0 25 7t7 25z" />
    <glyph glyph-name="uni0935094D0930" horiz-adv-x="377" 
d="M397 626v-70h-72v-556h-90v114l-107 -166h-98l106 158h-4q-86 0 -86 85v206q0 44 22 64.5t70 20.5h57v-70h-29q-18 0 -23.5 -5.5t-5.5 -23.5v-177q0 -19 5.5 -24.5t23.5 -5.5h40q18 0 23.5 5.5t5.5 24.5v350h-255v70h417z" />
    <glyph glyph-name="uni0936094D0930" horiz-adv-x="533" 
d="M392 626h161v-70h-71v-556h-90v187l-141 -143h-105l241 241h-137l-144 -137h-108l144 137q-48 1 -69 23.5t-21 65.5v164q0 88 96 88h67q96 0 96 -88v-131q0 -38 -15 -53h96v272zM141 529v-146q0 -17 5.5 -23t22.5 -6h24q17 0 22.5 6t5.5 23v146q0 17 -5.5 23t-22.5 6h-24
q-17 0 -22.5 -6t-5.5 -23z" />
    <glyph glyph-name="uni0938094D0930" horiz-adv-x="550" 
d="M570 626v-70h-72v-556h-89v256l-122 -131h-96l152 155h-209v-183q0 -18 6 -23.5t23 -5.5h158v-68h-185q-48 0 -70 21t-22 64v366h90v-103h65q19 0 25.5 6t6.5 26v144q0 20 -6.5 26t-25.5 6h-219v70h590zM409 348v208h-96q8 -8 8 -26v-129q0 -38 -15 -53h103z" />
    <glyph glyph-name="uni0939094D0930" horiz-adv-x="443" 
d="M334 414h-163q-17 0 -23 -5.5t-6 -22.5v-40q0 -17 6 -23t23 -6h151q84 0 84 -80v-70h-69v59q0 16 -4 22.5t-16 7.5l-69 -141h-71l69 141h-75q-17 0 -23 -6t-6 -24v-130q0 -18 6 -24t23 -6h171v-66h-194q-96 0 -96 89v140q0 44 39 49v2q-39 5 -39 49v68q0 44 22 64.5
t70 20.5h100v74h-264v70h483v-70h-129v-142z" />
    <glyph glyph-name="uni0915093C094D0930" horiz-adv-x="548" 
d="M568 556h-249v-84q11 10 36 10h63q90 0 90 -89v-202q0 -43 -22 -64t-70 -21h-57v68h29q18 0 24 5.5t6 23.5v179q0 19 -6 24.5t-24 5.5h-37q-18 0 -25 -6.5t-7 -25.5v-380h-90v114l-108 -166h-97l105 158q-89 0 -89 89v202q0 44 22 64.5t70 20.5h56v-68h-29
q-17 0 -23 -5.5t-6 -23.5v-179q0 -18 6 -24t23 -6h38q18 0 25 7t7 25v348h-249v70h588v-70zM172 -143v95h83v-95h-83z" />
    <glyph glyph-name="uni0916093C094D0930" horiz-adv-x="657" 
d="M677 626v-70h-72v-556h-87v124l-121 -176h-96l112 160q-79 6 -79 89v189q0 44 22 64.5t70 20.5h60v-68h-36q-18 0 -23.5 -5.5t-5.5 -23.5v-166q0 -18 5.5 -23.5t23.5 -5.5h31q20 0 28.5 8t8.5 27v342h-236q8 -8 8 -26v-201q0 -86 -92 -86h-61v-139q0 -20 5.5 -25.5
t25.5 -5.5h132v-73h-153q-52 0 -76.5 21t-24.5 66v384h91v-158h31q20 0 26 6.5t6 25.5v179q0 20 -6 26t-26 6h-188v70h697zM453 -140v95h83v-95h-83z" />
    <glyph glyph-name="uni0917093C094D0930" horiz-adv-x="557" 
d="M577 626v-70h-72v-556h-90v135l-176 -191h-100l276 298v314h-99v-317q0 -46 -23 -67.5t-73 -21.5h-90q-50 0 -73 21.5t-23 67.5v157q0 44 24 65t76 21h92v74h-246v70h597zM153 220h43q18 0 24 5.5t6 24.5v162h-71q-19 0 -25 -6t-6 -25v-131q0 -18 6 -24t23 -6zM321 -140
v95h83v-95h-83z" />
    <glyph glyph-name="uni0918093C094D0930" horiz-adv-x="441" 
d="M461 626v-70h-72v-556h-90v114l-107 -166h-98l112 169l-16 -11h-58q-86 0 -86 85v123q0 43 39 48v2q-39 5 -39 49v113q0 21 11 30h-77v70h481zM299 208v348h-118q-29 0 -36.5 -5t-7.5 -27v-95q0 -19 5.5 -24.5t23.5 -5.5h61v-70h-61q-18 0 -23.5 -5.5t-5.5 -23.5v-94
q0 -19 5.5 -24.5t23.5 -5.5h101q18 0 25 7t7 25zM252 -140v95h83v-95h-83z" />
    <glyph glyph-name="uni0919093C094D0930" horiz-adv-x="394" 
d="M-20 626h434v-70h-107v-142h-133q-18 0 -23.5 -5.5t-5.5 -23.5v-60q0 -17 5.5 -22.5t23.5 -5.5h54q48 0 70 -21t22 -64v-127q0 -73 -65 -83l79 -143h-86l-62 124l-63 -124h-86l79 142q-72 7 -72 84v79h90v-67q0 -18 5.5 -23.5t22.5 -5.5h39q17 0 23 5.5t6 23.5v103
q0 17 -6 22.5t-23 5.5h-55q-47 0 -69 21t-22 64v84q0 44 21.5 64.5t69.5 20.5h71v74h-237v70zM307 303v95h83v-95h-83zM144 -241v95h83v-95h-83z" />
    <glyph glyph-name="uni091A093C094D0930" horiz-adv-x="414" 
d="M430 626v-70h-72v-556h-90v114l-108 -166h-97l105 158h-19q-86 0 -86 85v189q0 22 10 32h-72v70h219v-70h-25q-27 0 -34.5 -5t-7.5 -25v-176q0 -18 5.5 -24t23.5 -6h54q18 0 25 7t7 25v348h-288v70h450zM210 -140v95h83v-95h-83z" />
    <glyph glyph-name="uni091B093C094D0930" horiz-adv-x="543" 
d="M563 556h-144v-75q78 -5 78 -84v-308q0 -89 -97 -89h-53l78 -141h-86l-62 124l-63 -124h-86l79 141h-60q-96 0 -96 89v171q0 43 39 48v2q-39 5 -39 49v171q0 16 7 26h-78v70h583v-70zM335 556h-146l7 -1q-37 2 -46 -2.5t-9 -28.5v-149q0 -19 5.5 -24.5t23.5 -5.5h36v-70
h-36q-18 0 -23.5 -5.5t-5.5 -24.5v-145q0 -18 5.5 -23.5t23.5 -5.5h211q18 0 23.5 5.5t5.5 23.5v287q0 18 -5.5 23.5t-23.5 5.5h-19q-18 0 -23.5 -5.5t-5.5 -23.5v-112q0 -18 5.5 -23.5t23.5 -5.5h18v-66h-37q-88 0 -88 85v132q0 79 80 85v74zM235 -252v95h83v-95h-83z" />
    <glyph glyph-name="uni091C093C094D0930" horiz-adv-x="540" 
d="M560 626v-70h-72v-556h-90v97l-139 -149h-102l241 252v212h-84v-205q0 -46 -23 -67.5t-73 -21.5h-78q-50 0 -73 21.5t-23 67.5v275h90v-264q0 -19 6 -24.5t24 -5.5h31q17 0 23 6t6 24v264h174v74h-418v70h580zM322 -132v95h83v-95h-83z" />
    <glyph glyph-name="uni091D093C094D0930" horiz-adv-x="570" 
d="M590 626v-70h-72v-556h-90v94l-138 -146h-96l234 237v79h-101q1 -6 1 -19v-78q0 -42 -22 -62t-70 -20h-102v-85h-90v199h90v-49h74q18 0 24 5.5t6 22.5v58q0 18 -6 23t-24 5h-74q-47 0 -69 20t-22 62v58q0 42 22 62t69 20h93v70h-251v70h614zM428 330v226h-110v-135h-156
q-18 0 -23.5 -5.5t-5.5 -23.5v-34q0 -17 5.5 -22.5t23.5 -5.5h266zM365 -143v95h83v-95h-83z" />
    <glyph glyph-name="uni091E093C094D0930" horiz-adv-x="533" 
d="M553 626v-70h-72v-556h-90v135l-176 -191h-101l277 298v20h-97v-23q0 -46 -23 -67.5t-73 -21.5h-74q-50 0 -73 21.5t-23 67.5v29h90v-18q0 -19 6 -24.5t24 -5.5h27q17 0 23 6t6 24v133q0 18 -5.5 23.5t-23.5 5.5h-89v70h117q91 0 91 -87v-62h97v223h-411v70h573z
M295 -146v95h83v-95h-83z" />
    <glyph glyph-name="uni091F093C094D0930" horiz-adv-x="366" 
d="M317 412h-145q-18 0 -24 -5.5t-6 -24.5v-282q0 -19 6 -24.5t24 -5.5h30q18 0 24 5.5t6 24.5v103h90v-114q0 -73 -61 -86l80 -144h-86l-62 124l-63 -124h-86l79 142q-71 10 -71 88v308q0 44 22 64.5t70 20.5h83v74h-247v70h406v-70h-69v-144zM151 -240v95h83v-95h-83z" />
    <glyph glyph-name="uni0920093C094D0930" horiz-adv-x="393" 
d="M413 556h-169v-74h7q50 0 73 -21t23 -68v-304q0 -81 -76 -88l78 -142h-86l-62 124l-63 -124h-86l79 142q-41 3 -60 24.5t-19 63.5v304q0 47 23 68t73 21h6v74h-174v70h433v-70zM257 100v282q0 19 -6 24.5t-24 5.5h-55q-18 0 -24 -5.5t-6 -24.5v-282q0 -19 6 -24.5
t24 -5.5h55q18 0 24 5.5t6 24.5zM158 -244v95h83v-95h-83z" />
    <glyph glyph-name="uni0921093C094D0930" horiz-adv-x="376" 
d="M307 414h-133q-18 0 -23.5 -5.5t-5.5 -23.5v-60q0 -17 5.5 -22.5t23.5 -5.5h54q48 0 70 -21t22 -64v-127q0 -73 -65 -83l79 -143h-86l-62 124l-63 -124h-86l79 142q-72 7 -72 84v79h90v-67q0 -18 5.5 -23.5t22.5 -5.5h39q17 0 23 5.5t6 23.5v103q0 17 -6 22.5t-23 5.5
h-55q-47 0 -69 21t-22 64v84q0 44 21.5 64.5t69.5 20.5h71v74h-237v70h416v-70h-89v-142zM147 -245v95h83v-95h-83z" />
    <glyph glyph-name="uni0922093C094D0930" horiz-adv-x="406" 
d="M317 412h-145q-18 0 -24 -5.5t-6 -24.5v-282q0 -19 6 -24.5t24 -5.5h65q17 0 23 6t6 24v88q0 18 -6 23.5t-23 5.5h-42v70h65q51 0 74 -21t23 -68v-109q0 -42 -19.5 -63.5t-61.5 -24.5l78 -142h-86l-62 124l-63 -124h-86l79 141q-44 3 -64 24.5t-20 64.5v308q0 44 22 64.5
t70 20.5h83v74h-247v70h446v-70h-109v-144zM164 -244v95h83v-95h-83z" />
    <glyph glyph-name="uni0923093C094D0930" horiz-adv-x="553" 
d="M573 626v-70h-72v-556h-90v135l-176 -191h-100l276 298v314h-97v-315q0 -46 -23 -67.5t-73 -21.5h-78q-50 0 -73 21.5t-23 67.5v315h-64v70h593zM224 252v304h-90v-304q0 -18 6 -23.5t24 -5.5h31q17 0 23 5.5t6 23.5zM314 -127v95h83v-95h-83z" />
    <glyph glyph-name="uni0924093C094D0930" horiz-adv-x="410" 
d="M430 626v-70h-72v-556h-89v198h-23l-135 -198h-102l165 242l-59 113q-16 31 -31 42.5t-45 11.5h-32v72h51q53 0 78 -14t46 -54l78 -146h9v289h-289v70h450zM161 -135v95h83v-95h-83z" />
    <glyph glyph-name="uni0925093C094D0930" horiz-adv-x="476" 
d="M496 626v-70h-71v-556h-91v114l-107 -166h-97l105 158h-102q-86 0 -86 85v172h102q18 0 24 5.5t6 22.5v141q0 18 -6 23.5t-24 5.5h-5q-18 0 -24 -5.5t-6 -23.5v-43h-60v58q0 84 88 84h37q90 0 90 -84v-168q0 -87 -92 -87h-40v-86q0 -18 5.5 -24t23.5 -6h137q17 0 24 7
t7 25v418h162zM288 -133v95h83v-95h-83z" />
    <glyph glyph-name="uni0926093C094D0930" horiz-adv-x="374" 
d="M322 412h-153q-18 0 -24 -5.5t-6 -24.5v-176q0 -18 5.5 -24t23.5 -6h37q18 0 25 7t7 25v63h90v-271h-90v114l-107 -166h-98l105 158h-2q-86 0 -86 85v206q0 44 22 64.5t70 20.5h91v74h-255v70h417v-70h-72v-144zM196 -140v95h83v-95h-83z" />
    <glyph glyph-name="uni0927093C094D0930" horiz-adv-x="478" 
d="M499 626v-70h-71v-556h-91v114l-107 -166h-97l112 169l-45 -11h-47q-86 0 -86 85v120q0 43 39 48v2q-39 5 -39 49v137q0 84 90 84h39q90 0 90 -84v-58h-60v43q0 18 -6 23.5t-24 5.5h-9q-18 0 -23.5 -5.5t-5.5 -23.5v-106q0 -19 5.5 -24.5t23.5 -5.5h68v-70h-68
q-18 0 -23.5 -5.5t-5.5 -24.5v-90q0 -19 5.5 -24.5t23.5 -5.5h119q17 0 24 7t7 25v418h162zM285 -144v95h83v-95h-83z" />
    <glyph glyph-name="uni0928093C094D0930" horiz-adv-x="529" 
d="M545 626v-70h-72v-556h-90v135l-176 -191h-101l277 298v170h-82v-159q0 -46 -23.5 -67.5t-73.5 -21.5h-74q-50 0 -73 21t-23 68v144q0 44 22 64.5t70 20.5h257v74h-403v70h565zM210 264v148h-57q-17 0 -23 -5.5t-6 -23.5v-119q0 -19 6 -24.5t24 -5.5h27q17 0 23 6t6 24z
M293 -140v95h83v-95h-83z" />
    <glyph glyph-name="uni092A093C094D0930" horiz-adv-x="383" 
d="M403 626v-70h-72v-556h-90v114l-107 -166h-98l105 158q-89 0 -89 89v361h-72v70h423zM241 208v348h-99v-350q0 -18 6 -24t23 -6h38q18 0 25 7t7 25zM186 -127v95h83v-95h-83z" />
    <glyph glyph-name="uni092B093C094D0930" horiz-adv-x="554" 
d="M574 556h-249v-85q11 11 37 11h62q90 0 90 -89v-230q0 -43 -22 -64t-69 -21h-57v68h29q18 0 23.5 5.5t5.5 23.5v207q0 19 -5.5 24.5t-23.5 5.5h-38q-18 0 -25 -6.5t-7 -25.5v-380h-90v114l-107 -166h-98l106 158h-4q-86 0 -86 85v365h-66v70h594v-70zM235 208v348h-98
v-350q0 -19 5.5 -24.5t23.5 -5.5h38q17 0 24 7t7 25zM184 -140v95h83v-95h-83z" />
    <glyph glyph-name="uni092C093C094D0930" horiz-adv-x="425" 
d="M445 626v-70h-72v-556h-91v112l-106 -164h-98l103 154h-45q-90 0 -90 89v206q0 44 22 64.5t70 20.5h104v-68h-75l69 -109l52 -88q-6 40 -6 129v210h-302v70h465zM165 172h77q12 0 19 3l-125 204v-177q0 -18 6 -24t23 -6zM232 -137v95h83v-95h-83z" />
    <glyph glyph-name="uni092D093C094D0930" horiz-adv-x="572" 
d="M592 626v-70h-71v-556h-91v135l-175 -191h-101l276 298v98h-105v-118q0 -46 -23 -67.5t-73 -21.5h-89q-50 0 -73 21.5t-23 67.5v104q0 43 22 64t70 21h99v117q0 18 -6 23.5t-24 5.5h-33q-18 0 -24 -5.5t-6 -23.5v-49h-90v61q0 87 92 87h89q92 0 92 -87v-129h105v215h162z
M235 233v107h-72q-17 0 -23 -5.5t-6 -22.5v-79q0 -18 6 -23.5t24 -5.5h41q18 0 24 5.5t6 23.5zM337 -142v95h83v-95h-83z" />
    <glyph glyph-name="uni092E093C094D0930" horiz-adv-x="562" 
d="M582 626v-70h-71v-556h-91v135l-175 -191h-101l276 298v123h-105v-143q0 -46 -23 -67.5t-73 -21.5h-89q-50 0 -73 21.5t-23 67.5v128q0 43 22 64t70 21h99v121h-245v70h602zM225 233v132h-75q-18 0 -24 -5.5t-6 -23.5v-103q0 -18 6 -23.5t24 -5.5h45q18 0 24 5.5t6 23.5z
M420 435v121h-105v-121h105zM324 -140v95h83v-95h-83z" />
    <glyph glyph-name="uni092F093C094D0930" horiz-adv-x="470" 
d="M490 626v-70h-72v-556h-90v114l-107 -166h-98l105 158h-106q-86 0 -86 85v187h90q17 0 23 5.5t6 22.5v117q0 22 -7 27.5t-37 5.5h-147v70h526zM328 208v348h-94q9 -10 9 -31v-131q0 -87 -90 -87h-27v-101q0 -19 6 -24.5t24 -5.5h140q18 0 25 7t7 25zM282 -136v95h83v-95
h-83z" />
    <glyph glyph-name="uni0935093C094D0930" horiz-adv-x="377" 
d="M397 626v-70h-72v-556h-90v114l-107 -166h-98l106 158h-4q-86 0 -86 85v206q0 44 22 64.5t70 20.5h57v-70h-29q-18 0 -23.5 -5.5t-5.5 -23.5v-177q0 -19 5.5 -24.5t23.5 -5.5h40q18 0 23.5 5.5t5.5 24.5v350h-255v70h417zM204 -146v95h83v-95h-83z" />
    <glyph glyph-name="uni0915094D0930094D" horiz-adv-x="446" 
d="M494 556h-175v-114q11 10 36 10h139v-70h-143q-18 0 -25 -6.5t-7 -25.5v-350h-90v114l-108 -166h-97l105 158q-89 0 -89 89v202q0 44 22 64.5t70 20.5h56v-68h-29q-17 0 -23 -5.5t-6 -23.5v-179q0 -18 6 -24t23 -6h38q18 0 25 7t7 25v348h-249v70h514v-70z" />
    <glyph glyph-name="uni0916094D0930094D" horiz-adv-x="485" 
d="M450 179h80v-38l-133 -193h-96l112 160q-79 6 -79 89v189q0 44 22 64.5t70 20.5h60v-68h-36q-18 0 -23.5 -5.5t-5.5 -23.5v-166q0 -18 5.5 -23.5t23.5 -5.5zM137 243v-139q0 -20 5.5 -25.5t25.5 -5.5h132v-73h-153q-52 0 -76.5 21t-24.5 66v384h91v-158h31q20 0 26 6.5
t6 25.5v179q0 20 -6 26t-26 6h-188v70h527v-70h-225q8 -8 8 -26v-201q0 -86 -92 -86h-61z" />
    <glyph glyph-name="uni0917094D0930094D" horiz-adv-x="399" 
d="M-20 626h471v-70h-135v-317q0 -46 -23 -67.5t-73 -21.5h-90q-50 0 -73 21.5t-23 67.5v157q0 44 24 65t76 21h92v74h-246v70zM153 220h43q18 0 24 5.5t6 24.5v162h-71q-19 0 -25 -6t-6 -25v-131q0 -18 6 -24t23 -6zM239 -56h-100l312 337v-108z" />
    <glyph glyph-name="uni0918094D0930094D" horiz-adv-x="307" 
d="M333 556h-152q-29 0 -36.5 -5t-7.5 -27v-94q0 -19 5.5 -24.5t23.5 -5.5h61v-70h-61q-18 0 -23.5 -5.5t-5.5 -24.5v-94q0 -19 5.5 -24.5t23.5 -5.5h167v-47l-118 -181h-97l105 158h-91q-86 0 -86 85v123q0 44 39 49v2q-39 5 -39 49v112q0 21 11 30h-77v70h353v-70z" />
    <glyph glyph-name="uni091A094D0930094D" horiz-adv-x="257" 
d="M-20 626h297v-70h-297v70zM153 382v-176q0 -18 5.5 -24t23.5 -6h95v-47l-117 -181h-97l105 158h-19q-86 0 -86 85v189q0 22 10 32h-72v70h219v-70h-25q-27 0 -34.5 -5t-7.5 -25z" />
    <glyph glyph-name="uni091C094D0930094D" horiz-adv-x="423" 
d="M443 247v-101l-184 -198h-102zM44 482h90v-264q0 -19 6 -24.5t24 -5.5h31q17 0 23 6t6 24v264h219v-70h-129v-205q0 -46 -23 -67.5t-73 -21.5h-78q-50 0 -73 21.5t-23 67.5v275zM-20 626h463v-70h-463v70z" />
    <glyph glyph-name="uni091D094D0930094D" horiz-adv-x="477" 
d="M318 414h-156q-18 0 -23.5 -5.5t-5.5 -23.5v-36q0 -18 5.5 -23.5t23.5 -5.5h345v-68h-181q2 -14 2 -21v-84q0 -44 -22 -64.5t-70 -20.5h-102v-75h-90v198h90v-55h74q18 0 24 5.5t6 23.5v64q0 18 -6 23.5t-24 5.5h-74q-48 0 -69.5 20.5t-21.5 64.5v60q0 44 21.5 64.5
t69.5 20.5h93v74h-247v70h527v-70h-189v-142zM309 -70h-103l301 300v-95z" />
    <glyph glyph-name="uni091E094D0930094D" horiz-adv-x="411" 
d="M-20 626h461v-70h-461v70zM294 395v-62h147v-71h-147v-95q0 -46 -23 -67.5t-73 -21.5h-74q-50 0 -73 21.5t-23 67.5v92h90v-81q0 -19 6 -24.5t24 -5.5h27q17 0 23 6t6 24v205q0 18 -5.5 23.5t-23.5 5.5h-89v70h117q91 0 91 -87zM281 -70h-104l264 262v-97z" />
    <glyph glyph-name="uni091F094D0930094D" horiz-adv-x="366" 
d="M317 412h-145q-18 0 -24 -5.5t-6 -24.5v-282q0 -19 6 -24.5t24 -5.5h30q18 0 24 5.5t6 24.5v103h90v-114q0 -73 -61 -86l80 -144h-86l-62 124l-63 -124h-86l79 142q-71 10 -71 88v308q0 44 22 64.5t70 20.5h83v74h-247v70h406v-70h-69v-144zM134 -156h95l106 -134h-95z
" />
    <glyph glyph-name="uni0920094D0930094D" horiz-adv-x="393" 
d="M413 556h-169v-74h7q50 0 73 -21t23 -68v-304q0 -81 -76 -88l78 -142h-86l-62 124l-63 -124h-86l79 142q-41 3 -60 24.5t-19 63.5v304q0 47 23 68t73 21h6v74h-174v70h433v-70zM257 100v282q0 19 -6 24.5t-24 5.5h-55q-18 0 -24 -5.5t-6 -24.5v-282q0 -19 6 -24.5
t24 -5.5h55q18 0 24 5.5t6 24.5zM145 -156h95l106 -134h-95z" />
    <glyph glyph-name="uni0921094D0930094D" horiz-adv-x="376" 
d="M-20 626h416v-70h-89v-142h-133q-18 0 -23.5 -5.5t-5.5 -23.5v-60q0 -17 5.5 -22.5t23.5 -5.5h54q48 0 70 -21t22 -64v-127q0 -73 -65 -83l79 -143h-86l-62 124l-63 -124h-86l79 142q-72 7 -72 84v79h90v-67q0 -18 5.5 -23.5t22.5 -5.5h39q17 0 23 5.5t6 23.5v103
q0 17 -6 22.5t-23 5.5h-55q-47 0 -69 21t-22 64v84q0 44 21.5 64.5t69.5 20.5h71v74h-237v70zM134 -156h95l106 -134h-95z" />
    <glyph glyph-name="uni0922094D0930094D" horiz-adv-x="406" 
d="M317 412h-145q-18 0 -24 -5.5t-6 -24.5v-282q0 -19 6 -24.5t24 -5.5h65q17 0 23 6t6 24v88q0 18 -6 23.5t-23 5.5h-42v70h65q51 0 74 -21t23 -68v-109q0 -42 -19.5 -63.5t-61.5 -24.5l78 -142h-86l-62 124l-63 -124h-86l79 141q-44 3 -64 24.5t-20 64.5v308q0 44 22 64.5
t70 20.5h83v74h-247v70h446v-70h-109v-144zM154 -156h95l106 -134h-95z" />
    <glyph glyph-name="uni0923094D0930094D" horiz-adv-x="375" 
d="M-20 626h425v-70h-91v-357q0 -47 -23 -68t-73 -21h-78q-50 0 -73 21t-23 68v357h-64v70zM224 209v347h-90v-347q0 -18 6 -23.5t24 -5.5h31q17 0 23 5.5t6 23.5zM245 -70h-105l265 260v-97z" />
    <glyph glyph-name="uni0924094D0930094D" horiz-adv-x="305" 
d="M-20 626h345v-70h-345v70zM325 267v-69h-79l-135 -198h-102l165 242l-59 113q-16 31 -31 42.5t-45 11.5h-32v72h51q53 0 78 -14t46 -54l78 -146h65z" />
    <glyph glyph-name="uni0925094D0930094D" horiz-adv-x="324" 
d="M166 176h178v-47l-117 -181h-97l105 158h-102q-86 0 -86 85v172h102q18 0 24 5.5t6 22.5v141q0 18 -6 23.5t-24 5.5h-5q-18 0 -24 -5.5t-6 -23.5v-43h-60v58q0 84 88 84h37q90 0 90 -84v-168q0 -87 -92 -87h-40v-86q0 -18 5.5 -24t23.5 -6z" />
    <glyph glyph-name="uni0926094D0930094D" horiz-adv-x="374" 
d="M323 -61l106 -134h-95l-106 134h95zM237 0v114l-107 -166h-98l105 158h-2q-86 0 -86 85v206q0 44 22 64.5t70 20.5h91v74h-255v70h417v-70h-72v-144h-153q-18 0 -24 -5.5t-6 -24.5v-176q0 -18 5.5 -24t23.5 -6h37q18 0 25 7t7 25v63h90v-271h-90z" />
    <glyph glyph-name="uni0927094D0930094D" horiz-adv-x="317" 
d="M67 311q0 43 39 48v2q-39 5 -39 49v137q0 84 90 84h39q90 0 90 -84v-58h-60v43q0 18 -6 23.5t-24 5.5h-9q-18 0 -23.5 -5.5t-5.5 -23.5v-106q0 -19 5.5 -24.5t23.5 -5.5h68v-70h-68q-18 0 -23.5 -5.5t-5.5 -24.5v-90q0 -19 5.5 -24.5t23.5 -5.5h160v-47l-117 -181h-97
l112 169l-59 -11h-33q-86 0 -86 85v120z" />
    <glyph glyph-name="uni0928094D0930094D" horiz-adv-x="409" 
d="M-20 626h449v-70h-449v70zM34 253v144q0 44 22 64.5t70 20.5h303v-70h-128v-159q0 -46 -23.5 -67.5t-73.5 -21.5h-74q-50 0 -73 21t-23 68zM210 412h-57q-17 0 -23 -5.5t-6 -23.5v-119q0 -19 6 -24.5t24 -5.5h27q17 0 23 6t6 24v148zM207 -56h-101l323 347v-106z" />
    <glyph glyph-name="uni092A094D0930094D" horiz-adv-x="231" 
d="M251 556h-109v-350q0 -18 6 -24t23 -6h80v-47l-117 -181h-98l105 158q-89 0 -89 89v361h-72v70h271v-70z" />
    <glyph glyph-name="uni092B094D0930094D" horiz-adv-x="444" 
d="M464 556h-139v-85q11 11 37 11h102v-70h-107q-18 0 -25 -6.5t-7 -25.5v-380h-90v114l-107 -166h-98l106 158h-4q-86 0 -86 85v365h-66v70h484v-70zM235 208v348h-98v-350q0 -19 5.5 -24.5t23.5 -5.5h38q17 0 24 7t7 25z" />
    <glyph glyph-name="uni092C094D0930094D" horiz-adv-x="294" 
d="M46 397q0 44 22 64.5t70 20.5h104v-68h-75q81 -142 98.5 -178t30.5 -63.5t16 -29.5v-64l-99 -131h-99l102 130h-80q-90 0 -90 89v230zM136 178q0 -18 6 -24t23 -6h99q-76 134 -101 182.5t-27 51.5v-204zM-20 626h332v-70h-332v70z" />
    <glyph glyph-name="uni092D094D0930094D" horiz-adv-x="440" 
d="M325 411h135v-71h-135v-118q0 -46 -23 -67.5t-73 -21.5h-89q-50 0 -73 21.5t-23 67.5v104q0 43 22 64t70 21h99v117q0 18 -6 23.5t-24 5.5h-33q-18 0 -24 -5.5t-6 -23.5v-49h-90v61q0 87 92 87h89q92 0 92 -87v-129zM235 233v107h-72q-17 0 -23 -5.5t-6 -22.5v-79
q0 -18 6 -23.5t24 -5.5h41q18 0 24 5.5t6 23.5zM255 -56h-101l306 329v-106z" />
    <glyph glyph-name="uni092E094D0930094D" horiz-adv-x="430" 
d="M315 435h135v-70h-135v-143q0 -46 -23 -67.5t-73 -21.5h-89q-50 0 -73 21.5t-23 67.5v128q0 43 22 64t70 21h99v121h-245v70h469v-70h-134v-121zM225 233v132h-75q-18 0 -24 -5.5t-6 -23.5v-103q0 -18 6 -23.5t24 -5.5h45q18 0 24 5.5t6 23.5zM245 -56h-101l305 328v-107
z" />
    <glyph glyph-name="uni092F094D0930094D" horiz-adv-x="318" 
d="M338 626v-70h-104q9 -10 9 -31v-131q0 -87 -90 -87h-27v-101q0 -19 6 -24.5t24 -5.5h182v-47l-117 -181h-98l105 158h-106q-86 0 -86 85v187h90q17 0 23 5.5t6 22.5v117q0 22 -7 27.5t-37 5.5h-131v70h358z" />
    <glyph glyph-name="uni0935094D0930094D" horiz-adv-x="235" 
d="M-20 626h265v-70h-265v70zM137 383v-177q0 -19 5.5 -24.5t23.5 -5.5h79v-47l-117 -181h-98l106 158h-4q-86 0 -86 85v206q0 44 22 64.5t70 20.5h57v-70h-29q-18 0 -23.5 -5.5t-5.5 -23.5z" />
    <glyph glyph-name="uni0938094D0930094D" horiz-adv-x="421" 
d="M441 626v-70h-128q8 -8 8 -26v-129q0 -38 -15 -53h135v-58l-154 -165h-96l151 155h-208v-183q0 -18 6 -23.5t23 -5.5h158v-68h-185q-48 0 -70 21t-22 64v366h90v-103h65q19 0 25.5 6t6.5 26v144q0 20 -6.5 26t-25.5 6h-219v70h461z" />
    <glyph glyph-name="uni0915093C094D0930094D" horiz-adv-x="446" 
d="M494 556h-175v-114q11 10 36 10h139v-70h-143q-18 0 -25 -6.5t-7 -25.5v-350h-90v114l-108 -166h-97l105 158q-89 0 -89 89v202q0 44 22 64.5t70 20.5h56v-68h-29q-17 0 -23 -5.5t-6 -23.5v-179q0 -18 6 -24t23 -6h38q18 0 25 7t7 25v348h-249v70h514v-70zM177 -139v95
h83v-95h-83z" />
    <glyph glyph-name="uni0916093C094D0930094D" horiz-adv-x="485" 
d="M450 179h80v-38l-133 -193h-96l112 160q-79 6 -79 89v189q0 44 22 64.5t70 20.5h60v-68h-36q-18 0 -23.5 -5.5t-5.5 -23.5v-166q0 -18 5.5 -23.5t23.5 -5.5zM137 243v-139q0 -20 5.5 -25.5t25.5 -5.5h132v-73h-153q-52 0 -76.5 21t-24.5 66v384h91v-158h31q20 0 26 6.5
t6 25.5v179q0 20 -6 26t-26 6h-188v70h527v-70h-225q8 -8 8 -26v-201q0 -86 -92 -86h-61zM183 -143v95h83v-95h-83z" />
    <glyph glyph-name="uni0917093C094D0930094D" horiz-adv-x="399" 
d="M-20 626h471v-70h-135v-317q0 -46 -23 -67.5t-73 -21.5h-90q-50 0 -73 21.5t-23 67.5v157q0 44 24 65t76 21h92v74h-246v70zM153 220h43q18 0 24 5.5t6 24.5v162h-71q-19 0 -25 -6t-6 -25v-131q0 -18 6 -24t23 -6zM239 -56h-100l312 337v-108zM348 -114v95h83v-95h-83z
" />
    <glyph glyph-name="uni0918093C094D0930094D" horiz-adv-x="307" 
d="M286 -22h83v-95h-83v95zM333 176v-47l-118 -181h-97l105 158h-91q-86 0 -86 85v123q0 44 39 49v2q-39 5 -39 49v112q0 21 11 30h-77v70h353v-70h-152q-29 0 -36.5 -5t-7.5 -27v-94q0 -19 5.5 -24.5t23.5 -5.5h61v-70h-61q-18 0 -23.5 -5.5t-5.5 -24.5v-94
q0 -19 5.5 -24.5t23.5 -5.5h167z" />
    <glyph glyph-name="uni0919093C094D0930094D" horiz-adv-x="394" 
d="M-20 626h434v-70h-107v-142h-133q-18 0 -23.5 -5.5t-5.5 -23.5v-60q0 -17 5.5 -22.5t23.5 -5.5h54q48 0 70 -21t22 -64v-127q0 -73 -65 -83l79 -143h-86l-62 124l-63 -124h-86l79 142q-72 7 -72 84v79h90v-67q0 -18 5.5 -23.5t22.5 -5.5h39q17 0 23 5.5t6 23.5v103
q0 17 -6 22.5t-23 5.5h-55q-47 0 -69 21t-22 64v84q0 44 21.5 64.5t69.5 20.5h71v74h-237v70zM307 303v95h83v-95h-83zM187 -163h95l106 -134h-95zM91 -258v95h83v-95h-83z" />
    <glyph glyph-name="uni091A093C094D0930094D" horiz-adv-x="257" 
d="M206 -38h83v-95h-83v95zM277 176v-47l-117 -181h-97l105 158h-19q-86 0 -86 85v189q0 22 10 32h-72v70h219v-70h-25q-27 0 -34.5 -5t-7.5 -25v-176q0 -18 5.5 -24t23.5 -6h95zM277 626v-70h-297v70h297z" />
    <glyph glyph-name="uni091B093C094D0930094D" horiz-adv-x="543" 
d="M563 556h-144v-75q78 -5 78 -84v-308q0 -89 -97 -89h-53l78 -141h-86l-62 124l-63 -124h-86l79 141h-60q-96 0 -96 89v171q0 43 39 48v2q-39 5 -39 49v171q0 16 7 26h-78v70h583v-70zM335 556h-146l7 -1q-37 2 -46 -2.5t-9 -28.5v-149q0 -19 5.5 -24.5t23.5 -5.5h36v-70
h-36q-18 0 -23.5 -5.5t-5.5 -24.5v-145q0 -18 5.5 -23.5t23.5 -5.5h211q18 0 23.5 5.5t5.5 23.5v287q0 18 -5.5 23.5t-23.5 5.5h-19q-18 0 -23.5 -5.5t-5.5 -23.5v-112q0 -18 5.5 -23.5t23.5 -5.5h18v-66h-37q-88 0 -88 85v132q0 79 80 85v74zM270 -163h95l106 -134h-95z
M174 -258v95h83v-95h-83z" />
    <glyph glyph-name="uni091C093C094D0930094D" horiz-adv-x="423" 
d="M315 -38h83v-95h-83v95zM443 247v-101l-184 -198h-102zM44 482h90v-264q0 -19 6 -24.5t24 -5.5h31q17 0 23 6t6 24v264h219v-70h-129v-205q0 -46 -23 -67.5t-73 -21.5h-78q-50 0 -73 21.5t-23 67.5v275zM-20 626h463v-70h-463v70z" />
    <glyph glyph-name="uni091D093C094D0930094D" horiz-adv-x="477" 
d="M318 414h-156q-18 0 -23.5 -5.5t-5.5 -23.5v-36q0 -18 5.5 -23.5t23.5 -5.5h345v-68h-181q2 -14 2 -21v-84q0 -44 -22 -64.5t-70 -20.5h-102v-75h-90v198h90v-55h74q18 0 24 5.5t6 23.5v64q0 18 -6 23.5t-24 5.5h-74q-48 0 -69.5 20.5t-21.5 64.5v60q0 44 21.5 64.5
t69.5 20.5h93v74h-247v70h527v-70h-189v-142zM309 -70h-103l301 300v-95zM397 -133v95h83v-95h-83z" />
    <glyph glyph-name="uni091E093C094D0930094D" horiz-adv-x="411" 
d="M374 -51h83v-95h-83v95zM441 192v-97l-160 -165h-104zM294 262v-95q0 -46 -23 -67.5t-73 -21.5h-74q-50 0 -73 21.5t-23 67.5v92h90v-81q0 -19 6 -24.5t24 -5.5h27q17 0 23 6t6 24v205q0 18 -5.5 23.5t-23.5 5.5h-89v70h117q91 0 91 -87v-62h147v-71h-147zM441 626v-70
h-461v70h461z" />
    <glyph glyph-name="uni091F093C094D0930094D" horiz-adv-x="366" 
d="M288 -163l106 -134h-95l-106 134h95zM97 -258v95h83v-95h-83zM52 89v308q0 44 22 64.5t70 20.5h83v74h-247v70h406v-70h-69v-144h-145q-18 0 -24 -5.5t-6 -24.5v-282q0 -19 6 -24.5t24 -5.5h30q18 0 24 5.5t6 24.5v103h90v-114q0 -73 -61 -86l80 -144h-86l-62 124
l-63 -124h-86l79 142q-71 10 -71 88z" />
    <glyph glyph-name="uni0920093C094D0930094D" horiz-adv-x="393" 
d="M-20 626h433v-70h-169v-74h7q50 0 73 -21t23 -68v-304q0 -81 -76 -88l78 -142h-86l-62 124l-63 -124h-86l79 142q-41 3 -60 24.5t-19 63.5v304q0 47 23 68t73 21h6v74h-174v70zM257 100v282q0 19 -6 24.5t-24 5.5h-55q-18 0 -24 -5.5t-6 -24.5v-282q0 -19 6 -24.5
t24 -5.5h55q18 0 24 5.5t6 24.5zM197 -163h95l106 -134h-95zM100 -258v95h83v-95h-83z" />
    <glyph glyph-name="uni0921093C094D0930094D" horiz-adv-x="376" 
d="M-20 626h416v-70h-89v-142h-133q-18 0 -23.5 -5.5t-5.5 -23.5v-60q0 -17 5.5 -22.5t23.5 -5.5h54q48 0 70 -21t22 -64v-127q0 -73 -65 -83l79 -143h-86l-62 124l-63 -124h-86l79 142q-72 7 -72 84v79h90v-67q0 -18 5.5 -23.5t22.5 -5.5h39q17 0 23 5.5t6 23.5v103
q0 17 -6 22.5t-23 5.5h-55q-47 0 -69 21t-22 64v84q0 44 21.5 64.5t69.5 20.5h71v74h-237v70zM183 -163h95l106 -134h-95zM87 -258v95h83v-95h-83z" />
    <glyph glyph-name="uni0922093C094D0930094D" horiz-adv-x="406" 
d="M-20 626h446v-70h-109v-144h-145q-18 0 -24 -5.5t-6 -24.5v-282q0 -19 6 -24.5t24 -5.5h65q17 0 23 6t6 24v88q0 18 -6 23.5t-23 5.5h-42v70h65q51 0 74 -21t23 -68v-109q0 -42 -19.5 -63.5t-61.5 -24.5l78 -142h-86l-62 124l-63 -124h-86l79 141q-44 3 -64 24.5
t-20 64.5v308q0 44 22 64.5t70 20.5h83v74h-247v70zM205 -163h95l106 -134h-95zM109 -258v95h83v-95h-83z" />
    <glyph glyph-name="uni0923093C094D0930094D" horiz-adv-x="375" 
d="M-20 626h425v-70h-91v-357q0 -47 -23 -68t-73 -21h-78q-50 0 -73 21t-23 68v357h-64v70zM224 209v347h-90v-347q0 -18 6 -23.5t24 -5.5h31q17 0 23 5.5t6 23.5zM245 -70h-105l265 260v-97zM314 -143v95h83v-95h-83z" />
    <glyph glyph-name="uni0924093C094D0930094D" horiz-adv-x="305" 
d="M-20 626h345v-70h-345v70zM325 267v-69h-79l-135 -198h-102l165 242l-59 113q-16 31 -31 42.5t-45 11.5h-32v72h51q53 0 78 -14t46 -54l78 -146h65zM189 -116v95h83v-95h-83z" />
    <glyph glyph-name="uni0925093C094D0930094D" horiz-adv-x="324" 
d="M279 -31h83v-95h-83v95zM344 176v-47l-117 -181h-97l105 158h-102q-86 0 -86 85v172h102q18 0 24 5.5t6 22.5v141q0 18 -6 23.5t-24 5.5h-5q-18 0 -24 -5.5t-6 -23.5v-43h-60v58q0 84 88 84h37q90 0 90 -84v-168q0 -87 -92 -87h-40v-86q0 -18 5.5 -24t23.5 -6h178z" />
    <glyph glyph-name="uni0926093C094D0930094D" horiz-adv-x="374" 
d="M323 -57l106 -134h-95l-106 134h95zM132 -153v95h83v-95h-83zM237 0v114l-107 -166h-98l105 158h-2q-86 0 -86 85v206q0 44 22 64.5t70 20.5h91v74h-255v70h417v-70h-72v-144h-153q-18 0 -24 -5.5t-6 -24.5v-176q0 -18 5.5 -24t23.5 -6h37q18 0 25 7t7 25v63h90v-271h-90
z" />
    <glyph glyph-name="uni0927093C094D0930094D" horiz-adv-x="317" 
d="M288 -23h83v-95h-83v95zM67 311q0 43 39 48v2q-39 5 -39 49v137q0 84 90 84h39q90 0 90 -84v-58h-60v43q0 18 -6 23.5t-24 5.5h-9q-18 0 -23.5 -5.5t-5.5 -23.5v-106q0 -19 5.5 -24.5t23.5 -5.5h68v-70h-68q-18 0 -23.5 -5.5t-5.5 -24.5v-90q0 -19 5.5 -24.5t23.5 -5.5
h160v-47l-117 -181h-97l112 169l-59 -11h-33q-86 0 -86 85v120z" />
    <glyph glyph-name="uni0928093C094D0930094D" horiz-adv-x="409" 
d="M-20 626h449v-70h-449v70zM34 253v144q0 44 22 64.5t70 20.5h303v-70h-128v-159q0 -46 -23.5 -67.5t-73.5 -21.5h-74q-50 0 -73 21t-23 68zM210 412h-57q-17 0 -23 -5.5t-6 -23.5v-119q0 -19 6 -24.5t24 -5.5h27q17 0 23 6t6 24v148zM207 -56h-101l323 347v-106zM295 -87
v95h83v-95h-83z" />
    <glyph glyph-name="uni092A093C094D0930094D" horiz-adv-x="231" 
d="M188 -9h83v-95h-83v95zM251 176v-47l-117 -181h-98l105 158q-89 0 -89 89v361h-72v70h271v-70h-109v-350q0 -18 6 -24t23 -6h80z" />
    <glyph glyph-name="uni092B093C094D0930094D" horiz-adv-x="444" 
d="M464 556h-139v-85q11 11 37 11h102v-70h-107q-18 0 -25 -6.5t-7 -25.5v-380h-90v114l-107 -166h-98l106 158h-4q-86 0 -86 85v365h-66v70h484v-70zM235 208v348h-98v-350q0 -19 5.5 -24.5t23.5 -5.5h38q17 0 24 7t7 25zM192 -141v95h83v-95h-83z" />
    <glyph glyph-name="uni092C093C094D0930094D" horiz-adv-x="294" 
d="M267 -42h83v-95h-83v95zM46 397q0 44 22 64.5t70 20.5h104v-68h-75q81 -142 98.5 -178t30.5 -63.5t16 -29.5v-64l-99 -131h-99l102 130h-80q-90 0 -90 89v230zM136 178q0 -18 6 -24t23 -6h99q-76 134 -101 182.5t-27 51.5v-204zM-20 626h332v-70h-332v70z" />
    <glyph glyph-name="uni092D093C094D0930094D" horiz-adv-x="440" 
d="M325 411h135v-71h-135v-118q0 -46 -23 -67.5t-73 -21.5h-89q-50 0 -73 21.5t-23 67.5v104q0 43 22 64t70 21h99v117q0 18 -6 23.5t-24 5.5h-33q-18 0 -24 -5.5t-6 -23.5v-49h-90v61q0 87 92 87h89q92 0 92 -87v-129zM235 233v107h-72q-17 0 -23 -5.5t-6 -22.5v-79
q0 -18 6 -23.5t24 -5.5h41q18 0 24 5.5t6 23.5zM255 -56h-101l306 329v-106zM351 -114v95h83v-95h-83z" />
    <glyph glyph-name="uni092E093C094D0930094D" horiz-adv-x="430" 
d="M315 435h135v-70h-135v-143q0 -46 -23 -67.5t-73 -21.5h-89q-50 0 -73 21.5t-23 67.5v128q0 43 22 64t70 21h99v121h-245v70h469v-70h-134v-121zM225 233v132h-75q-18 0 -24 -5.5t-6 -23.5v-103q0 -18 6 -23.5t24 -5.5h45q18 0 24 5.5t6 23.5zM245 -56h-101l305 328v-107
zM344 -109v95h83v-95h-83z" />
    <glyph glyph-name="uni092F093C094D0930094D" horiz-adv-x="318" 
d="M270 -31h83v-95h-83v95zM338 176v-47l-117 -181h-98l105 158h-106q-86 0 -86 85v187h90q17 0 23 5.5t6 22.5v117q0 22 -7 27.5t-37 5.5h-131v70h358v-70h-104q9 -10 9 -31v-131q0 -87 -90 -87h-27v-101q0 -19 6 -24.5t24 -5.5h182z" />
    <glyph glyph-name="uni0935093C094D0930094D" horiz-adv-x="235" 
d="M185 -26h83v-95h-83v95zM245 176v-47l-117 -181h-98l106 158h-4q-86 0 -86 85v206q0 44 22 64.5t70 20.5h57v-70h-29q-18 0 -23.5 -5.5t-5.5 -23.5v-177q0 -19 5.5 -24.5t23.5 -5.5h79zM245 626v-70h-265v70h265z" />
    <glyph glyph-name="uni0915094D0915" horiz-adv-x="914" 
d="M934 556h-249v-84q11 10 36 10h63q90 0 90 -89v-230q0 -43 -22 -64t-70 -21h-57v68h29q18 0 24 5.5t6 23.5v207q0 19 -6 24.5t-24 5.5h-37q-18 0 -25 -6.5t-7 -25.5v-380h-90v89q-11 -11 -37 -11h-62q-90 0 -90 89v213q0 15 5 32h-60q-18 0 -25 -6.5t-7 -25.5v-380h-90
v89q-11 -11 -37 -11h-62q-90 0 -90 89v230q0 44 22 64.5t70 20.5h56v-68h-29q-17 0 -23 -5.5t-6 -23.5v-207q0 -18 6 -24t23 -6h38q18 0 25 7t7 25v376h-249v70h954v-70zM595 180v376h-276v-84q11 10 36 10h199v-68h-29q-17 0 -23 -5.5t-6 -23.5v-207q0 -18 6 -24t23 -6h38
q18 0 25 7t7 25z" />
    <glyph glyph-name="uni0915094D0916" horiz-adv-x="1028" 
d="M1048 626v-70h-72v-556h-87v124q-11 -14 -40 -14h-54q-90 0 -90 89v187q0 44 22 64.5t70 20.5h60v-68h-36q-17 0 -23 -5.5t-6 -23.5v-164q0 -18 6 -23.5t23 -5.5h31q20 0 28.5 8t8.5 28v339h-236q8 -8 8 -26v-201q0 -44 -22 -65t-70 -21h-61v-139q0 -19 6 -25t25 -6h221
v-73h-242q-52 0 -76 21t-24 66v295h-67q-18 0 -25 -6.5t-7 -25.5v-350h-90v89q-11 -11 -37 -11h-62q-90 0 -90 89v230q0 44 22 64.5t70 20.5h56v-68h-29q-17 0 -23 -5.5t-6 -23.5v-207q0 -18 6 -24t23 -6h38q18 0 25 7t7 25v376h-249v70h1068zM571 345v179q0 20 -6.5 26
t-25.5 6h-220v-114q11 10 36 10h153v-139h31q19 0 25.5 6.5t6.5 25.5z" />
    <glyph glyph-name="uni0915094D091A" horiz-adv-x="762" 
d="M782 626v-70h-72v-556h-90v89q-11 -11 -36 -11h-79q-90 0 -90 89v183q0 22 10 32h-74q-18 0 -25 -6.5t-7 -25.5v-350h-90v89q-11 -11 -37 -11h-62q-90 0 -90 89v230q0 44 22 64.5t70 20.5h56v-68h-29q-17 0 -23 -5.5t-6 -23.5v-207q0 -18 6 -24t23 -6h38q18 0 25 7t7 25
v376h-249v70h802zM620 180v376h-301v-114q11 10 36 10h217v-70h-24q-27 0 -34.5 -5t-7.5 -25v-174q0 -19 5.5 -24.5t23.5 -5.5h53q18 0 25 7t7 25z" />
    <glyph glyph-name="uni0915094D091C" horiz-adv-x="914" 
d="M934 626v-70h-72v-556h-90v412h-84v-245q0 -46 -23 -67.5t-73 -21.5h-78q-50 0 -73 21.5t-23 67.5v245h-67q-18 0 -25 -6.5t-7 -25.5v-380h-90v89q-11 -11 -37 -11h-62q-90 0 -90 89v230q0 44 22 64.5t70 20.5h56v-68h-29q-17 0 -23 -5.5t-6 -23.5v-207q0 -18 6 -24
t23 -6h38q18 0 25 7t7 25v376h-249v70h954zM772 482v74h-453v-84q11 10 36 10h153v-304q0 -19 6 -24.5t24 -5.5h30q18 0 24 5.5t6 24.5v304h174z" />
    <glyph glyph-name="uni0915094D091F" horiz-adv-x="740" 
d="M683 412h-145q-18 0 -24 -5.5t-6 -24.5v-282q0 -19 6 -24.5t24 -5.5h30q18 0 24 5.5t6 24.5v103h90v-114q0 -46 -23 -67.5t-73 -21.5h-78q-50 0 -73 21.5t-23 67.5v308q0 10 1 15h-68q-18 0 -25 -6.5t-7 -25.5v-380h-90v89q-11 -11 -37 -11h-62q-90 0 -90 89v230
q0 44 22 64.5t70 20.5h56v-68h-29q-17 0 -23 -5.5t-6 -23.5v-207q0 -18 6 -24t23 -6h38q18 0 25 7t7 25v376h-249v70h780v-70h-77v-144zM319 556v-84q11 10 36 10h237v74h-273z" />
    <glyph glyph-name="uni0915094D0923" horiz-adv-x="918" 
d="M938 626v-70h-72v-556h-90v556h-86v-389q0 -46 -23 -67.5t-73 -21.5h-78q-50 0 -73 21.5t-23 67.5v215h-69q-18 0 -25 -6.5t-7 -25.5v-350h-90v89q-11 -11 -37 -11h-62q-90 0 -90 89v230q0 44 22 64.5t70 20.5h56v-68h-29q-17 0 -23 -5.5t-6 -23.5v-207q0 -18 6 -24
t23 -6h38q18 0 25 7t7 25v376h-249v70h958zM355 452h65v104h-101v-114q11 10 36 10zM600 178v378h-90v-378q0 -19 6 -24.5t24 -5.5h30q18 0 24 5.5t6 24.5z" />
    <glyph glyph-name="uni0915094D0924" horiz-adv-x="573" 
d="M593 556h-249v-84q11 10 36 10h63q90 0 90 -89v-230q0 -43 -22 -64t-70 -21h-57v68h29q18 0 24 5.5t6 23.5v207q0 19 -6 24.5t-24 5.5h-37q-18 0 -25 -6.5t-7 -25.5v-380h-90v380q0 19 -7 25.5t-25 6.5h-38q-18 0 -23.5 -6t-5.5 -24v-207q0 -18 6 -23.5t23 -5.5h29v-68
h-56q-48 0 -70 21t-22 64v212q0 25 12 37h-72v70h212q26 0 37 -11v85h-274v70h613v-70z" />
    <glyph glyph-name="uni0915094D0925" horiz-adv-x="856" 
d="M876 626v-70h-71v-556h-91v89q-11 -11 -35 -11h-163q-96 0 -96 89v125h-69q-18 0 -25 -6.5t-7 -25.5v-260h-90v89q-11 -11 -37 -11h-62q-90 0 -90 89v230q0 44 22 64.5t70 20.5h56v-68h-29q-17 0 -23 -5.5t-6 -23.5v-207q0 -18 6 -24t23 -6h38q18 0 25 7t7 25v376h-249
v70h393v-70h-54v-204q11 11 36 11h155q18 0 23.5 5.5t5.5 22.5v141q0 18 -5.5 23.5t-23.5 5.5h-5q-18 0 -24 -5.5t-6 -23.5v-43h-60v58q0 84 88 84h37q90 0 90 -84v-168q0 -87 -92 -87h-28v-114q0 -18 6 -24t23 -6h141q20 0 27 7t7 27v444h162z" />
    <glyph glyph-name="uni0915094D0926" horiz-adv-x="742" 
d="M690 386h-152q-18 0 -24 -5.5t-6 -24.5v-178q0 -19 5.5 -24.5t23.5 -5.5h37q18 0 25 7t7 25v89h90v-269h-90v89q-11 -11 -37 -11h-55q-50 0 -73 21.5t-23 67.5v204q0 10 1 15h-68q-18 0 -25 -7t-7 -25v-354h-90v89q-11 -11 -37 -11h-62q-90 0 -90 89v230q0 44 22 64.5
t70 20.5h56v-68h-29q-17 0 -23 -5.5t-6 -23.5v-207q0 -18 6 -24t23 -6h38q18 0 25 7t7 25v376h-249v70h788v-70h-78v-170zM319 556v-111q11 11 36 11h245v100h-281z" />
    <glyph glyph-name="uni0915094D092A" horiz-adv-x="750" 
d="M776 626v-70h-72v-556h-90v89q-11 -11 -37 -11h-62q-90 0 -90 89v215h-74q-18 0 -25 -6.5t-7 -25.5v-350h-90v89q-11 -11 -37 -11h-62q-90 0 -90 89v230q0 44 22 64.5t70 20.5h56v-68h-29q-17 0 -23 -5.5t-6 -23.5v-207q0 -18 6 -24t23 -6h38q18 0 25 7t7 25v376h-249v70
h796zM355 452h70v104h-106v-114q11 10 36 10zM614 180v376h-99v-378q0 -18 5.5 -24t23.5 -6h38q18 0 25 7t7 25z" />
    <glyph glyph-name="uni0915094D092B" horiz-adv-x="927" 
d="M947 556h-249v-85q11 11 37 11h62q90 0 90 -89v-230q0 -43 -22 -64t-69 -21h-57v68h29q18 0 23.5 5.5t5.5 23.5v207q0 19 -5.5 24.5t-23.5 5.5h-38q-18 0 -25 -6.5t-7 -25.5v-380h-90v89q-11 -11 -36 -11h-63q-90 0 -90 89v215h-68q-18 0 -25 -6.5t-7 -25.5v-350h-90v89
q-11 -11 -37 -11h-62q-90 0 -90 89v230q0 44 22 64.5t70 20.5h56v-68h-29q-17 0 -23 -5.5t-6 -23.5v-207q0 -18 6 -24t23 -6h38q18 0 25 7t7 25v376h-249v70h967v-70zM355 452h64v104h-100v-114q11 10 36 10zM608 180v376h-98v-378q0 -19 5.5 -24.5t23.5 -5.5h38q17 0 24 7
t7 25z" />
    <glyph glyph-name="uni0915094D092E" horiz-adv-x="946" 
d="M966 626v-70h-72v-556h-90v362h-106v-171q0 -47 -23 -68t-73 -21h-88q-50 0 -73 21t-23 68v156q0 10 1 15h-68q-18 0 -25 -7t-7 -25v-330h-90v89q-11 -11 -37 -11h-62q-90 0 -90 89v230q0 44 22 64.5t70 20.5h56v-68h-29q-17 0 -23 -5.5t-6 -23.5v-207q0 -18 6 -24t23 -6
h38q18 0 25 7t7 25v376h-249v70h986zM319 556v-135q11 11 36 11h253v124h-289zM608 202v160h-75q-17 0 -23 -5.5t-6 -23.5v-131q0 -19 6 -24.5t24 -5.5h44q18 0 24 5.5t6 24.5zM804 432v124h-106v-124h106z" />
    <glyph glyph-name="uni0915094D092F" horiz-adv-x="848" 
d="M868 626v-70h-72v-556h-90v89q-11 -11 -36 -11h-160q-96 0 -96 89v140h-63q-18 0 -25 -6.5t-7 -24.5v-276h-90v89q-11 -11 -37 -11h-62q-90 0 -90 89v230q0 44 22 64.5t70 20.5h56v-68h-29q-17 0 -23 -5.5t-6 -23.5v-207q0 -18 6 -24t23 -6h38q18 0 25 7t7 25v376h-249
v70h888zM355 378h148q18 0 23.5 5.5t5.5 22.5v117q0 22 -7 27.5t-36 5.5h-170v-189q11 11 36 11zM706 182v374h-95q10 -10 10 -31v-131q0 -87 -91 -87h-26v-129q0 -19 5.5 -24.5t23.5 -5.5h139q20 0 27 7t7 27z" />
    <glyph glyph-name="uni0915094D0932" horiz-adv-x="913" 
d="M933 626v-70h-66v-556h-90v382h-60q-18 0 -23.5 -6t-5.5 -24v-167h-90v167q0 18 -5.5 24t-24.5 6h-31q-18 0 -23.5 -5.5t-5.5 -24.5v-251q0 -17 5.5 -22.5t23.5 -5.5h59v-73h-87q-47 0 -69 21t-22 64v278q0 13 1 19h-68q-18 0 -25 -6.5t-7 -25.5v-350h-90v89
q-11 -11 -37 -11h-62q-90 0 -90 89v230q0 44 22 64.5t70 20.5h56v-68h-29q-17 0 -23 -5.5t-6 -23.5v-207q0 -18 6 -24t23 -6h38q18 0 25 7t7 25v376h-249v70h953zM777 452v104h-458v-114q11 10 36 10h239q44 0 49 -39h3q3 39 48 39h83z" />
    <glyph glyph-name="uni0915094D0935" horiz-adv-x="749" 
d="M769 626v-70h-72v-556h-91v88q-11 -10 -36 -10h-63q-89 0 -89 89v200q0 10 1 15h-68q-18 0 -25 -6.5t-7 -25.5v-350h-90v89q-11 -11 -37 -11h-62q-90 0 -90 89v230q0 44 22 64.5t70 20.5h56v-68h-29q-17 0 -23 -5.5t-6 -23.5v-207q0 -18 6 -24t23 -6h38q18 0 25 7t7 25
v376h-249v70h789zM606 180v376h-287v-114q11 10 36 10h211v-68h-29q-18 0 -23.5 -5.5t-5.5 -23.5v-177q0 -19 5.5 -24.5t23.5 -5.5h38q17 0 24 7t7 25z" />
    <glyph glyph-name="uni0915094D0936" horiz-adv-x="920" 
d="M778 626h161v-70h-72v-556h-89v626zM514 628h92q91 0 91 -87v-194q0 -44 -24 -65t-76 -21h-86v-164q0 -18 5.5 -23.5t23.5 -5.5h38q17 0 22.5 5.5t5.5 23.5v96h90v-108q0 -43 -22 -64t-70 -21h-92q-47 0 -69 21t-22 64v225h-70q-18 0 -25 -6.5t-7 -25.5v-278h-90v89
q-11 -11 -37 -11h-62q-90 0 -90 89v230q0 44 22 64.5t70 20.5h56v-68h-29q-17 0 -23 -5.5t-6 -23.5v-207q0 -18 6 -24t23 -6h38q18 0 25 7t7 25v376h-249v70h397v-70h-58v-186q11 11 36 11h156v-50h65q19 0 25 6.5t6 25.5v166q0 18 -5.5 23.5t-23.5 5.5h-38
q-17 0 -22.5 -5.5t-5.5 -23.5v-77h-90v89q0 87 92 87z" />
    <glyph glyph-name="uni0915094D0938" horiz-adv-x="923" 
d="M943 626v-70h-71v-556h-90v278h-274v-181q0 -18 5.5 -23.5t23.5 -5.5h38q17 0 22.5 5.5t5.5 23.5v113h90v-125q0 -43 -22 -64t-70 -21h-92q-47 0 -69 21t-22 64v297h-67q-18 0 -25 -6.5t-7 -25.5v-350h-90v89q-11 -11 -37 -11h-62q-90 0 -90 89v230q0 44 22 64.5t70 20.5
h56v-68h-29q-17 0 -23 -5.5t-6 -23.5v-207q0 -18 6 -24t23 -6h38q18 0 25 7t7 25v376h-249v70h963zM604 380v144q0 20 -6 26t-25 6h-254v-114q11 10 36 10h153v-104h65q19 0 25 6.5t6 25.5zM782 348v208h-96q8 -8 8 -26v-129q0 -38 -15 -53h103z" />
    <glyph glyph-name="uni0916094D0916" horiz-adv-x="1129" 
d="M1149 626v-70h-72v-556h-87v126q-10 -16 -41 -16h-54q-90 0 -90 89v187q0 44 22 64.5t70 20.5h60v-68h-35q-18 0 -23.5 -5.5t-5.5 -23.5v-164q0 -18 5.5 -23.5t23.5 -5.5h30q21 0 29.5 8t8.5 28v339h-236q8 -8 8 -26v-201q0 -44 -22.5 -65t-70.5 -21h-61v-139
q0 -19 6 -25t26 -6h220v-73h-242q-100 0 -100 87v38q-10 -15 -40 -15h-54q-90 0 -90 89v187q0 44 22 64.5t70 20.5h60v-68h-36q-18 0 -23.5 -5.5t-5.5 -23.5v-164q0 -18 5.5 -23.5t23.5 -5.5h31q20 0 28.5 8t8.5 28v254h90v-158h32q19 0 25 6t6 26v179q0 20 -6 26t-25 6
h-358q8 -8 8 -26v-201q0 -86 -92 -86h-61v-139q0 -20 5.5 -25.5t25.5 -5.5h221v-73h-242q-52 0 -76.5 21t-24.5 66v384h91v-158h31q20 0 26 6.5t6 25.5v179q0 20 -6 26t-26 6h-188v70h1169z" />
    <glyph glyph-name="uni0916094D0924" horiz-adv-x="872" 
d="M892 626v-70h-72v-556h-90v412h-92q-18 0 -24 -5.5t-6 -23.5v-282q0 -17 6 -22.5t24 -5.5h29v-73h-57q-48 0 -70 21t-22 64v40q-10 -15 -40 -15h-54q-90 0 -90 89v187q0 44 22 64.5t70 20.5h60v-68h-36q-18 0 -23.5 -5.5t-5.5 -23.5v-164q0 -18 5.5 -23.5t23.5 -5.5h31
q20 0 28.5 8t8.5 28v180q0 44 22 64.5t70 20.5h120v74h-448q8 -8 8 -26v-213q0 -86 -92 -86h-61v-127q0 -20 5.5 -25.5t25.5 -5.5h192v-73h-213q-52 0 -76.5 21t-24.5 66v384h91v-170h31q20 0 26 6.5t6 25.5v191q0 20 -6 26t-26 6h-188v70h912z" />
    <glyph glyph-name="uni0916094D092E" horiz-adv-x="1013" 
d="M1047 626v-70h-72v-556h-90v362h-86v-171q0 -47 -23 -68t-73 -21h-89q-55 0 -77 25q-13 -25 -55 -25h-58q-90 0 -90 89v206q0 44 22 64.5t70 20.5h60v-68h-36q-18 0 -23.5 -5.5t-5.5 -23.5v-183q0 -19 5.5 -24.5t23.5 -5.5h31q20 0 28.5 8t8.5 28v139q0 43 22 64t70 21
h99v124h-427q8 -8 8 -26v-201q0 -86 -92 -86h-61v-139q0 -20 5.5 -25.5t25.5 -5.5h221v-73h-242q-52 0 -76.5 21t-24.5 66v384h91v-158h31q20 0 26 6.5t6 25.5v179q0 20 -6 26t-26 6h-188v70h1067zM709 202v160h-75q-18 0 -24 -5.5t-6 -23.5v-131q0 -19 6 -24.5t24 -5.5h45
q18 0 24 5.5t6 24.5zM885 432v124h-86v-124h86z" />
    <glyph glyph-name="uni0916094D092F" horiz-adv-x="952" 
d="M972 626v-70h-72v-556h-90v89q-11 -11 -36 -11h-160q-65 0 -85 38q-15 -14 -47 -14h-58q-90 0 -90 89v206q0 44 22 64.5t70 20.5h60v-68h-36q-18 0 -23.5 -5.5t-5.5 -23.5v-183q0 -19 5.5 -24.5t23.5 -5.5h31q20 0 28.5 8t8.5 28v170h89q18 0 24 5.5t6 22.5v117
q0 21 -7.5 27t-36.5 6h-311q8 -8 8 -26v-201q0 -86 -92 -86h-61v-139q0 -20 5.5 -25.5t25.5 -5.5h221v-73h-242q-52 0 -76.5 21t-24.5 66v384h91v-158h31q20 0 26 6.5t6 25.5v179q0 20 -6 26t-26 6h-188v70h992zM810 182v374h-94q9 -11 9 -31v-131q0 -87 -90 -87h-27v-129
q0 -19 6 -24.5t24 -5.5h138q20 0 27 7t7 27z" />
    <glyph glyph-name="uni0916094D0935" horiz-adv-x="836" 
d="M856 626v-70h-59v-556h-90v89q-11 -11 -37 -11h-62q-74 0 -87 58q-12 -13 -41 -13h-56q-90 0 -90 89v185q0 44 22 64.5t70 20.5h60v-68h-36q-18 0 -23.5 -5.5t-5.5 -23.5v-162q0 -19 5.5 -24.5t23.5 -5.5h31q20 0 28.5 8t8.5 28v168q0 44 22 64.5t70 20.5h57v-68h-29
q-18 0 -24 -5.5t-6 -23.5v-207q0 -19 6 -24.5t24 -5.5h37q18 0 25 7t7 25v376h-425q8 -8 8 -26v-201q0 -86 -92 -86h-61v-139q0 -20 5.5 -25.5t25.5 -5.5h235v-73h-256q-52 0 -76.5 21t-24.5 66v384h91v-158h31q20 0 26 6.5t6 25.5v179q0 20 -6 26t-26 6h-188v70h876z" />
    <glyph glyph-name="uni0916094D0936" horiz-adv-x="1017" 
d="M875 626h162v-70h-73v-556h-89v626zM611 628h92q92 0 92 -87v-194q0 -86 -100 -86h-87v-164q0 -18 6 -23.5t24 -5.5h37q17 0 22.5 5.5t5.5 23.5v96h90v-108q0 -43 -22 -64t-70 -21h-91q-48 0 -70 21t-22 64v40q-10 -15 -40 -15h-54q-90 0 -90 89v187q0 44 22 64.5
t70 20.5h52v-68h-28q-18 0 -23.5 -5.5t-5.5 -23.5v-164q0 -18 5.5 -23.5t23.5 -5.5h31q20 0 28.5 8t8.5 28v164h90v-50h65q19 0 25.5 6.5t6.5 25.5v166q0 18 -6 23.5t-24 5.5h-37q-17 0 -22.5 -5.5t-5.5 -23.5v-77h-90v89q0 87 91 87zM137 243v-139q0 -20 5.5 -25.5
t25.5 -5.5h221v-73h-242q-52 0 -76.5 21t-24.5 66v384h91v-158h31q20 0 26 6.5t6 25.5v179q0 20 -6 26t-26 6h-188v70h498v-70h-196q8 -8 8 -26v-201q0 -86 -92 -86h-61z" />
    <glyph glyph-name="uni0917094D0917" horiz-adv-x="916" 
d="M936 626v-70h-72v-556h-90v556h-99v-389q0 -46 -23 -67.5t-73 -21.5h-90q-50 0 -73 21.5t-23 67.5v182q0 87 100 87h92v120h-269v-389q0 -46 -23 -67.5t-73 -21.5h-90q-50 0 -73 21.5t-23 67.5v182q0 87 100 87h92v120h-246v70h956zM153 148h43q18 0 24 5.5t6 24.5v187
h-71q-19 0 -25 -5.5t-6 -25.5v-156q0 -18 6 -24t23 -6zM512 148h43q18 0 24 5.5t6 24.5v187h-71q-20 0 -25.5 -5.5t-5.5 -25.5v-156q0 -18 5.5 -24t23.5 -6z" />
    <glyph glyph-name="uni0917094D0918" horiz-adv-x="804" 
d="M827 626v-70h-71v-556h-91v89q-11 -11 -35 -11h-120q-97 0 -97 89v134q0 45 39 48v3q-39 3 -39 49v125q0 21 11 30h-108v-389q0 -46 -23 -67.5t-73 -21.5h-90q-50 0 -73 21.5t-23 67.5v182q0 87 100 87h92v120h-246v70h847zM153 148h43q18 0 24 5.5t6 24.5v187h-71
q-19 0 -25 -5.5t-6 -25.5v-156q0 -18 6 -24t23 -6zM665 182v374h-117q-29 0 -36.5 -5t-7.5 -27v-108q0 -18 5.5 -23.5t23.5 -5.5h61v-71h-61q-18 0 -23.5 -5.5t-5.5 -23.5v-109q0 -19 5.5 -24.5t23.5 -5.5h98q19 0 26.5 7t7.5 27z" />
    <glyph glyph-name="uni0917094D091C" horiz-adv-x="902" 
d="M924 626v-70h-72v-556h-90v412h-84v-245q0 -46 -23 -67.5t-73 -21.5h-78q-50 0 -73 21.5t-23 67.5v315h90v-304q0 -19 6 -24.5t24 -5.5h31q17 0 23 6t6 24v304h174v74h-446v-389q0 -46 -23 -67.5t-73 -21.5h-90q-50 0 -73 21.5t-23 67.5v182q0 87 100 87h92v120h-246v70
h944zM153 148h43q18 0 24 5.5t6 24.5v187h-71q-19 0 -25 -5.5t-6 -25.5v-156q0 -18 6 -24t23 -6z" />
    <glyph glyph-name="uni0917094D0923" horiz-adv-x="904" 
d="M924 626v-70h-72v-556h-90v556h-86v-389q0 -46 -23 -67.5t-73 -21.5h-78q-50 0 -73 21.5t-23 67.5v389h-90v-389q0 -46 -23 -67.5t-73 -21.5h-90q-50 0 -73 21.5t-23 67.5v182q0 87 100 87h92v120h-246v70h944zM153 148h43q18 0 24 5.5t6 24.5v187h-71q-19 0 -25 -5.5
t-6 -25.5v-156q0 -18 6 -24t23 -6zM586 178v378h-90v-378q0 -19 6 -24.5t24 -5.5h31q17 0 23 6t6 24z" />
    <glyph glyph-name="uni0917094D0926" horiz-adv-x="736" 
d="M679 412h-153q-18 0 -24 -5.5t-6 -24.5v-204q0 -18 6 -24t23 -6h37q18 0 25 7t7 25v91h90v-271h-90v89q-11 -11 -36 -11h-56q-50 0 -73 21.5t-23 67.5v230q0 44 22 64.5t70 20.5h91v74h-273v-389q0 -46 -23 -67.5t-73 -21.5h-90q-50 0 -73 21.5t-23 67.5v182q0 87 100 87
h92v120h-246v70h771v-70h-72v-144zM153 148h43q18 0 24 5.5t6 24.5v187h-71q-19 0 -25 -5.5t-6 -25.5v-156q0 -18 6 -24t23 -6z" />
    <glyph glyph-name="uni0917094D0927" horiz-adv-x="819" 
d="M840 626v-70h-71v-556h-91v89q-11 -11 -35 -11h-145q-90 0 -90 85v131q0 43 39 48v2q-39 5 -39 49v154q0 84 90 84h39q90 0 90 -84v-58h-60v43q0 18 -6 23.5t-24 5.5h-9q-18 0 -23.5 -5.5t-5.5 -23.5v-123q0 -19 5.5 -24.5t23.5 -5.5h68v-70h-68q-18 0 -23.5 -5.5
t-5.5 -24.5v-101q0 -19 5.5 -24.5t23.5 -5.5h116q20 0 27 7t7 27v444h162zM-20 556v70h398v-70h-62v-389q0 -46 -23 -67.5t-73 -21.5h-90q-50 0 -73 21.5t-23 67.5v182q0 87 100 87h92v120h-246zM153 148h43q18 0 24 5.5t6 24.5v187h-71q-19 0 -25 -5.5t-6 -25.5v-156
q0 -18 6 -24t23 -6z" />
    <glyph glyph-name="uni0917094D092C" horiz-adv-x="782" 
d="M809 626v-70h-72v-556h-91v85q-11 -7 -32 -7h-114q-90 0 -90 89v230q0 44 22 64.5t70 20.5h104v-68h-75l69 -121l52 -96q-6 39 -6 128v231h-330v-389q0 -46 -23 -67.5t-73 -21.5h-90q-50 0 -73 21.5t-23 67.5v182q0 87 100 87h92v120h-246v70h829zM153 148h43
q18 0 24 5.5t6 24.5v187h-71q-19 0 -25 -5.5t-6 -25.5v-156q0 -18 6 -24t23 -6zM529 148h89q9 0 12 1l-77 132q-12 23 -31.5 60.5t-21.5 40.5v-204q0 -18 6 -24t23 -6z" />
    <glyph glyph-name="uni0917094D092D" horiz-adv-x="932" 
d="M952 626v-70h-71v-556h-91v339h-105v-172q0 -46 -23 -67.5t-73 -21.5h-89q-50 0 -73 21.5t-23 67.5v157q0 44 22 64.5t70 20.5h99v119q0 18 -6 23.5t-24 5.5h-33q-18 0 -24 -5.5t-6 -23.5v-49h-90v61q0 87 92 87h89q92 0 92 -87v-131h105v217h162zM595 178v161h-72
q-17 0 -23 -5.5t-6 -23.5v-132q0 -19 6 -24.5t24 -5.5h41q18 0 24 5.5t6 24.5zM-20 556v70h397v-70h-61v-389q0 -46 -23 -67.5t-73 -21.5h-90q-50 0 -73 21.5t-23 67.5v182q0 87 100 87h92v120h-246zM153 148h43q18 0 24 5.5t6 24.5v187h-71q-19 0 -25 -5.5t-6 -25.5v-156
q0 -18 6 -24t23 -6z" />
    <glyph glyph-name="uni0917094D092E" horiz-adv-x="932" 
d="M952 626v-70h-71v-556h-91v362h-105v-171q0 -47 -23 -68t-73 -21h-89q-50 0 -73 21t-23 68v156q0 43 22 64t70 21h99v124h-279v-389q0 -46 -23 -67.5t-73 -21.5h-90q-50 0 -73 21.5t-23 67.5v182q0 87 100 87h92v120h-246v70h972zM153 148h43q18 0 24 5.5t6 24.5v187h-71
q-19 0 -25 -5.5t-6 -25.5v-156q0 -18 6 -24t23 -6zM595 202v160h-75q-18 0 -24 -5.5t-6 -23.5v-131q0 -19 6 -24.5t24 -5.5h45q18 0 24 5.5t6 24.5zM790 432v124h-105v-124h105z" />
    <glyph glyph-name="uni0917094D092F" horiz-adv-x="838" 
d="M858 626v-70h-72v-556h-90v89q-11 -11 -36 -11h-160q-96 0 -96 89v211h90q17 0 23 5.5t6 22.5v117q0 22 -7 27.5t-37 5.5h-163v-389q0 -46 -23 -67.5t-73 -21.5h-90q-50 0 -73 21.5t-23 67.5v182q0 87 100 87h92v120h-246v70h878zM153 148h43q18 0 24 5.5t6 24.5v187h-71
q-19 0 -25 -5.5t-6 -25.5v-156q0 -18 6 -24t23 -6zM696 182v374h-94q9 -11 9 -31v-131q0 -87 -90 -87h-27v-129q0 -19 6 -24.5t24 -5.5h138q20 0 27 7t7 27z" />
    <glyph glyph-name="uni0917094D0932" horiz-adv-x="899" 
d="M920 626v-70h-67v-556h-90v412h-60q-18 0 -23.5 -6t-5.5 -24v-197h-90v197q0 18 -5.5 24t-23.5 6h-32q-17 0 -23 -6t-6 -24v-281q0 -17 6 -22.5t23 -5.5h59v-73h-87q-47 0 -69 21t-22 64v308q0 89 90 89h86q46 0 49 -39h3q3 39 48 39h83v74h-447v-389q0 -46 -23 -67.5
t-73 -21.5h-90q-50 0 -73 21.5t-23 67.5v182q0 87 100 87h92v120h-246v70h940zM153 148h43q18 0 24 5.5t6 24.5v187h-71q-19 0 -25 -5.5t-6 -25.5v-156q0 -18 6 -24t23 -6z" />
    </font>
</defs>
</svg>
